tja
This commit is contained in:
466
tja/346.tja
Normal file
466
tja/346.tja
Normal file
@@ -0,0 +1,466 @@
|
||||
//TJADB Project
|
||||
TITLE:Red Rose Evangel
|
||||
TITLEJA:Red Rose Evangel
|
||||
SUBTITLE:--Tatsh a.k.a. Zeami feat. Ayane
|
||||
BPM:178
|
||||
WAVE:Red Rose Evangel.ogg
|
||||
OFFSET:-1.605
|
||||
DEMOSTART:49.133
|
||||
|
||||
COURSE:Oni
|
||||
LEVEL:9
|
||||
BALLOON:6,6,10,20
|
||||
SCOREINIT:360
|
||||
SCOREDIFF:90
|
||||
|
||||
|
||||
#START
|
||||
|
||||
|
||||
78,
|
||||
1000202022112211,//2
|
||||
|
||||
#GOGOSTART
|
||||
1011201110102010,
|
||||
1011201111102010,
|
||||
1011201110102010,
|
||||
2011102011102211,
|
||||
1011201110102010,
|
||||
1011201111102010,
|
||||
1011201110102010,
|
||||
2011102011102211,//10
|
||||
|
||||
#GOGOEND
|
||||
1,
|
||||
00000120,
|
||||
1010201110102010,
|
||||
1010201110202010,
|
||||
1010201110102010,
|
||||
1010201110202010,
|
||||
1010201110102010,
|
||||
1000201110221110,
|
||||
1010201022102010,
|
||||
0020111020111000,
|
||||
1010200210201110,
|
||||
1010200210221110,
|
||||
1010201022102010,
|
||||
0020111020111000,
|
||||
30030060,
|
||||
000000000000000000000000000000000008000000000000,
|
||||
1010202010202010,
|
||||
1010202010202010,
|
||||
1110201020102210,
|
||||
1110201020102210,
|
||||
500000000000000000000008000000000000000000300000,
|
||||
43040406,
|
||||
000000000000000000000000000000000008000000000000,
|
||||
40040040,
|
||||
30030030,
|
||||
3,//36
|
||||
|
||||
#GOGOSTART
|
||||
1011201020112010,
|
||||
1011201020112010,
|
||||
1011201020112010,
|
||||
1011211020112110,
|
||||
1110201022102010,
|
||||
0010201120121020,
|
||||
1110201022102010,
|
||||
0010201120121020,
|
||||
1010201110102012,
|
||||
1010201110201120,
|
||||
1010201110102012,
|
||||
1010201110201120,
|
||||
1010201021102012,
|
||||
1010201021102012,
|
||||
1022101022102211,
|
||||
7008,
|
||||
1110201110202010,
|
||||
1110201120102010,
|
||||
1110201110202010,
|
||||
2011201020112010,
|
||||
2010221021102211,//57
|
||||
|
||||
#GOGOEND
|
||||
1,
|
||||
1012101001112010,
|
||||
1021201001112010,//60
|
||||
|
||||
#GOGOSTART
|
||||
1101201011112011,
|
||||
1101201111102010,
|
||||
1101201011112011,
|
||||
1101201111102010,
|
||||
1101201011112011,
|
||||
1101201111102010,
|
||||
1202101012021070,
|
||||
0008,
|
||||
1101201011112011,
|
||||
1101201111102010,
|
||||
1101201011112011,
|
||||
1101201111102010,
|
||||
2011201020112010,
|
||||
2010221020102210,
|
||||
2011102011102110,
|
||||
2011102210102211,
|
||||
1011201020112010,
|
||||
2011102210102211,
|
||||
7,
|
||||
0008,
|
||||
3000002210221220,
|
||||
1222121212221212,//82
|
||||
|
||||
#GOGOEND
|
||||
1020201110201120,
|
||||
1020201111201121,
|
||||
1020201110201120,
|
||||
1020201111201121,
|
||||
1020201110201120,
|
||||
0021212011221212,
|
||||
1,
|
||||
|
||||
|
||||
#END
|
||||
|
||||
|
||||
COURSE:Hard
|
||||
LEVEL:7
|
||||
BALLOON:8,5,15
|
||||
SCOREINIT:460
|
||||
SCOREDIFF:110
|
||||
|
||||
#START
|
||||
7,
|
||||
8,//2
|
||||
|
||||
#GOGOSTART
|
||||
1000101000111010,
|
||||
1000101000111010,
|
||||
1000101000111010,
|
||||
10211120,
|
||||
1000101000111010,
|
||||
1000101000111010,
|
||||
1000101000111010,
|
||||
10211120,//10
|
||||
|
||||
#GOGOEND
|
||||
3,
|
||||
0000000000102000,
|
||||
11211120,
|
||||
11211220,
|
||||
11211120,
|
||||
11211220,
|
||||
11211120,
|
||||
10211120,
|
||||
1010200022202010,
|
||||
01201220,
|
||||
11201021,
|
||||
01201220,
|
||||
1010200022202010,
|
||||
01201220,
|
||||
30030060,
|
||||
0008,
|
||||
10202021,
|
||||
10221220,
|
||||
10202021,
|
||||
10221220,
|
||||
500000000000000000000008000000000000000000300000,
|
||||
33030306,
|
||||
000000000000000000000000000000000008000000000000,
|
||||
40040040,
|
||||
30030030,
|
||||
3,//36
|
||||
|
||||
#GOGOSTART
|
||||
1000201000111010,
|
||||
1000201000111010,
|
||||
1000201000111010,
|
||||
10211120,
|
||||
1110200010102010,
|
||||
0010200010102000,
|
||||
1110200010102010,
|
||||
0010200010102000,
|
||||
1010200010202000,
|
||||
1010201000202000,
|
||||
1010200010202000,
|
||||
1010201000202000,
|
||||
11212120,
|
||||
11212120,
|
||||
30030030,
|
||||
7000000000008000,
|
||||
1010200011102000,
|
||||
11210220,
|
||||
1010200011102000,
|
||||
3344,
|
||||
600000000000000000000000000000000000000000000008,//57
|
||||
|
||||
#GOGOEND
|
||||
,
|
||||
10210120,
|
||||
1020201000112000,//60
|
||||
|
||||
#GOGOSTART
|
||||
1010200011102010,
|
||||
01211120,
|
||||
1010200011102010,
|
||||
01211220,
|
||||
1010200011102010,
|
||||
01211120,
|
||||
30330306,
|
||||
000000000000000000000000000000000008000000000000,
|
||||
1010200011102010,
|
||||
01211120,
|
||||
1010200011102010,
|
||||
01211220,
|
||||
11212121,
|
||||
11212120,
|
||||
10210120,
|
||||
500000000000000000000000000000000008000000000000,
|
||||
11212121,
|
||||
11212120,
|
||||
7,
|
||||
0008,
|
||||
30030030,
|
||||
1020201000112000,//82
|
||||
|
||||
#GOGOEND
|
||||
12212212,
|
||||
12212120,
|
||||
12212212,
|
||||
12212120,
|
||||
12212212,
|
||||
0020100011111000,
|
||||
3,
|
||||
,
|
||||
,
|
||||
,
|
||||
,
|
||||
#END
|
||||
|
||||
COURSE:Normal
|
||||
LEVEL:7
|
||||
BALLOON:7,14,10
|
||||
SCOREINIT:600
|
||||
SCOREDIFF:120
|
||||
|
||||
#START
|
||||
7,
|
||||
8,//2
|
||||
|
||||
#GOGOSTART
|
||||
10110220,
|
||||
10110220,
|
||||
10110220,
|
||||
10222000,
|
||||
10110220,
|
||||
10110220,
|
||||
10110220,
|
||||
10222000,//10
|
||||
|
||||
#GOGOEND
|
||||
3,
|
||||
,
|
||||
10111020,
|
||||
10111000,
|
||||
10111020,
|
||||
10111000,
|
||||
10111020,
|
||||
10111000,
|
||||
10201110,
|
||||
10201110,
|
||||
10200020,
|
||||
10200020,
|
||||
10201110,
|
||||
10201110,
|
||||
5,
|
||||
000000000000000000000008000000000000000000000000,
|
||||
1222,
|
||||
10222000,
|
||||
10202020,
|
||||
10222000,
|
||||
500000000000000000000008000000000000000000000000,
|
||||
7,
|
||||
0008,
|
||||
,
|
||||
3003,
|
||||
3,//36
|
||||
|
||||
#GOGOSTART
|
||||
10110220,
|
||||
10110220,
|
||||
10110220,
|
||||
10222000,
|
||||
1210,
|
||||
11102000,
|
||||
1210,
|
||||
11102000,
|
||||
1202,
|
||||
1120,
|
||||
1202,
|
||||
1120,
|
||||
10201120,
|
||||
10201120,
|
||||
33,
|
||||
3,
|
||||
10201120,
|
||||
1122,
|
||||
10201120,
|
||||
3344,
|
||||
600000000000000000000000000000000000000000000008,//57
|
||||
|
||||
#GOGOEND
|
||||
,
|
||||
1212,
|
||||
12101210,//60
|
||||
|
||||
#GOGOSTART
|
||||
10201120,
|
||||
10220220,
|
||||
10201120,
|
||||
10220220,
|
||||
10201120,
|
||||
10220220,
|
||||
5,
|
||||
000000000000000000000008000000000000000000000000,
|
||||
10201120,
|
||||
10220220,
|
||||
10201120,
|
||||
10220220,
|
||||
10102011,
|
||||
10102011,
|
||||
10201120,
|
||||
500000000000000000000000000000000008000000000000,
|
||||
10102011,
|
||||
10102011,
|
||||
7,
|
||||
0008,
|
||||
33,
|
||||
3330,//82
|
||||
|
||||
#GOGOEND
|
||||
10102011,
|
||||
11102120,
|
||||
10102011,
|
||||
11102120,
|
||||
10102011,
|
||||
01104000,
|
||||
3,
|
||||
,
|
||||
,
|
||||
,
|
||||
,
|
||||
#END
|
||||
|
||||
COURSE:Easy
|
||||
LEVEL:5
|
||||
BALLOON:5,12,9
|
||||
SCOREINIT:370
|
||||
SCOREDIFF:90
|
||||
|
||||
#START
|
||||
7,
|
||||
8,//2
|
||||
|
||||
#GOGOSTART
|
||||
10110010,
|
||||
10110010,
|
||||
10110010,
|
||||
1220,
|
||||
10110010,
|
||||
10110010,
|
||||
10110010,
|
||||
1220,//10
|
||||
|
||||
#GOGOEND
|
||||
3,
|
||||
,
|
||||
1110,
|
||||
10111000,
|
||||
1110,
|
||||
10111000,
|
||||
1110,
|
||||
10111000,
|
||||
12,
|
||||
1120,
|
||||
12,
|
||||
1120,
|
||||
12,
|
||||
1120,
|
||||
5,
|
||||
000000000000000000000008000000000000000000000000,
|
||||
1222,
|
||||
10111000,
|
||||
1222,
|
||||
10111000,
|
||||
500000000000000000000008000000000000000000000000,
|
||||
9,
|
||||
0908,
|
||||
,
|
||||
3003,
|
||||
3,//36
|
||||
|
||||
#GOGOSTART
|
||||
10110020,
|
||||
10110020,
|
||||
10110020,
|
||||
1220,
|
||||
1110,
|
||||
11102000,
|
||||
1110,
|
||||
11102000,
|
||||
1102,
|
||||
1102,
|
||||
1102,
|
||||
1120,
|
||||
1120,
|
||||
1120,
|
||||
33,
|
||||
3,
|
||||
11101000,
|
||||
1110,
|
||||
11101000,
|
||||
3330,
|
||||
600000000000000000000000000000000000000000000008,//57
|
||||
|
||||
#GOGOEND
|
||||
,
|
||||
11,
|
||||
1110,//60
|
||||
|
||||
#GOGOSTART
|
||||
10101110,
|
||||
1110,
|
||||
10101110,
|
||||
1110,
|
||||
10101110,
|
||||
10101110,
|
||||
5,
|
||||
000000000000000000000008000000000000000000000000,
|
||||
10101110,
|
||||
2220,
|
||||
10101110,
|
||||
2220,
|
||||
10101011,
|
||||
1110,
|
||||
20201110,
|
||||
500000000000000000000000000000000008000000000000,
|
||||
10101011,
|
||||
1110,
|
||||
7,
|
||||
08,
|
||||
33,
|
||||
3330,//82
|
||||
|
||||
#GOGOEND
|
||||
10101011,
|
||||
1122,
|
||||
10101011,
|
||||
1122,
|
||||
10101011,
|
||||
01104000,
|
||||
3,
|
||||
,
|
||||
,
|
||||
,
|
||||
,
|
||||
#END
|
||||
Reference in New Issue
Block a user