tja
This commit is contained in:
406
tja/350.tja
Normal file
406
tja/350.tja
Normal file
@@ -0,0 +1,406 @@
|
||||
//TJADB Project
|
||||
TITLE:Saika
|
||||
TITLEJA:Saika
|
||||
SUBTITLE:--Rabpit/DEEMO
|
||||
SUBTITLEJA:Rabpit 「DEEMO」より
|
||||
BPM:128
|
||||
WAVE:Saika.ogg
|
||||
OFFSET:-2.018
|
||||
DEMOSTART:93.890
|
||||
|
||||
//shinuchi: 6810/4470/2250/1560
|
||||
|
||||
COURSE:Oni
|
||||
LEVEL:8
|
||||
BALLOON:18,9,5,5,5,5,31
|
||||
SCOREINIT:540,1670
|
||||
SCOREDIFF:130
|
||||
|
||||
#START
|
||||
1111,
|
||||
1000100010021002,
|
||||
1111,
|
||||
7008,
|
||||
|
||||
2020102022201020,
|
||||
0020102022201020,
|
||||
0020102022201020,
|
||||
70080222, //8
|
||||
|
||||
1020102012201020,
|
||||
0022002212201020,
|
||||
1020102012201020,
|
||||
0022002210202020,
|
||||
|
||||
1022102012201010,
|
||||
1022102212201010,
|
||||
1122112211221122,
|
||||
1121112111212211, //16
|
||||
|
||||
12021212,
|
||||
0020002010222010,
|
||||
02021212,
|
||||
0020002010222010,
|
||||
|
||||
02021212,
|
||||
2020002010222010,
|
||||
0020002010222010,
|
||||
2201210122104000, //24
|
||||
|
||||
1022101020112020,
|
||||
1022101020112020,
|
||||
1022202210201020,
|
||||
1022002211201020,
|
||||
|
||||
1022101020112020,
|
||||
1022102011201040,
|
||||
0022002211201020,
|
||||
1022102020104000, //32
|
||||
|
||||
1022202010201000,
|
||||
1022201010201000,
|
||||
1021202010201000,
|
||||
1021201010202020,
|
||||
|
||||
1022202010201000,
|
||||
1022201010201000,
|
||||
1021202010201000,
|
||||
1021201010202020, //40
|
||||
|
||||
3022202020101010,
|
||||
3022201020101010,
|
||||
3021202020101010,
|
||||
3021201020101010,
|
||||
|
||||
3022201030212010,
|
||||
3022201030212010,
|
||||
1122112212121212,
|
||||
500000000000000000000000000000000000000008000000,
|
||||
2002002002002000, //49
|
||||
|
||||
#GOGOSTART
|
||||
1102102212201110,
|
||||
2202102212102200,
|
||||
1202102211202220,
|
||||
1102102112102200,
|
||||
|
||||
1102102212201110,
|
||||
2202102212102200,
|
||||
1102102211202220,
|
||||
2201202120122102, //57
|
||||
|
||||
7000801022122122,
|
||||
1001001021221221,
|
||||
7000801012212212,
|
||||
1021021040020202,
|
||||
|
||||
7000801022122122,
|
||||
1001001021221221,
|
||||
7000801022122212,
|
||||
1221122120112211, //65
|
||||
#GOGOEND
|
||||
|
||||
12202022,
|
||||
22227000,
|
||||
00000008,
|
||||
#BARLINEOFF
|
||||
0,
|
||||
0, //70
|
||||
#END
|
||||
|
||||
|
||||
COURSE:Hard
|
||||
LEVEL:6
|
||||
BALLOON:13,6,12,4,21
|
||||
SCOREINIT:590,2380
|
||||
SCOREDIFF:148
|
||||
|
||||
#START
|
||||
1111,
|
||||
1000100010011001,
|
||||
1111,
|
||||
7008,
|
||||
|
||||
2020002022202000,
|
||||
2020002022202000,
|
||||
2020002022202000,
|
||||
70080222, //8
|
||||
|
||||
1000100011101020,
|
||||
1000100011102020,
|
||||
1000100011102020,
|
||||
10101222,
|
||||
|
||||
1000100011102020,
|
||||
1000100011102020,
|
||||
1110111022202220,
|
||||
500000000000000000000000000000000008000000000000, //16
|
||||
|
||||
12010201,
|
||||
02021212,
|
||||
02021122,
|
||||
01021122,
|
||||
|
||||
02010201,
|
||||
22021212,
|
||||
01021221,
|
||||
7008, //24
|
||||
|
||||
10220122,
|
||||
01220122,
|
||||
02010222,
|
||||
01022202,
|
||||
|
||||
01012101,
|
||||
21020204,
|
||||
0002,
|
||||
10212020, //32
|
||||
|
||||
1011101010002000,
|
||||
1011101010002000,
|
||||
1011101010002000,
|
||||
1011101010202020,
|
||||
|
||||
1011101010002000,
|
||||
1011101010002000,
|
||||
1011101010002000,
|
||||
1011101010202020, //40
|
||||
|
||||
3011101010202020,
|
||||
1011101010202020,
|
||||
1011101010202020,
|
||||
1011101010202020,
|
||||
|
||||
1011102010111020,
|
||||
1011102010111020,
|
||||
1110111011101110,
|
||||
500000000000000000000000000000000000000000000008,
|
||||
0044, //49
|
||||
|
||||
#GOGOSTART
|
||||
1002202011101000,
|
||||
1002202011102000,
|
||||
1002202011102000,
|
||||
1002202011101000,
|
||||
|
||||
1002202011101000,
|
||||
1002202011102000,
|
||||
1002202011102000,
|
||||
1002202011101000, //57
|
||||
|
||||
30012101,
|
||||
1001001020100010,
|
||||
30012101,
|
||||
1001001070008000,
|
||||
|
||||
30012101,
|
||||
1001001020100010,
|
||||
30012101,
|
||||
1110111020101110, //65
|
||||
#GOGOEND
|
||||
|
||||
20202022,
|
||||
22227000,
|
||||
00000008,
|
||||
#BARLINEOFF
|
||||
0,
|
||||
0, //70
|
||||
#END
|
||||
|
||||
|
||||
COURSE:Normal
|
||||
LEVEL:4
|
||||
BALLOON:8,8,19,11,8,19,3,3,21
|
||||
SCOREINIT:870,5050
|
||||
SCOREDIFF:230
|
||||
|
||||
#START
|
||||
1110,
|
||||
1110,
|
||||
1111,
|
||||
7008,
|
||||
|
||||
1111,
|
||||
1110,
|
||||
1111,
|
||||
7008, //8
|
||||
|
||||
10101110,
|
||||
1110,
|
||||
10101110,
|
||||
1110,
|
||||
|
||||
10101110,
|
||||
10101110,
|
||||
7,
|
||||
0008, //16
|
||||
|
||||
1122,
|
||||
10102220,
|
||||
7,
|
||||
8,
|
||||
|
||||
1122,
|
||||
10102220,
|
||||
500000000000000000000000000000000008000000000000,
|
||||
7008, //24
|
||||
|
||||
10220022,
|
||||
00220022,
|
||||
07000000,
|
||||
00000008,
|
||||
|
||||
01,
|
||||
10020204,
|
||||
0002,
|
||||
10111040, //32
|
||||
|
||||
10222020,
|
||||
1220,
|
||||
10222020,
|
||||
1220,
|
||||
|
||||
10222020,
|
||||
1220,
|
||||
10222020,
|
||||
1220, //40
|
||||
|
||||
30101011,
|
||||
10101011,
|
||||
10101011,
|
||||
10101011,
|
||||
|
||||
10111011,
|
||||
10111011,
|
||||
11111111,
|
||||
600000000000000000000000000000000000000000000008,
|
||||
0033, //49
|
||||
|
||||
#GOGOSTART
|
||||
1001001000000000,
|
||||
2002002000000000,
|
||||
1001001000000000,
|
||||
500000000000000000000000000000000008000000000000,
|
||||
|
||||
1001001000000000,
|
||||
2002002000000000,
|
||||
1001001000000000,
|
||||
500000000000000000000000000000000008000000000000, //57
|
||||
|
||||
30012000,
|
||||
7820,
|
||||
30012000,
|
||||
600000000000000000000008000000000000000000000000,
|
||||
|
||||
30012000,
|
||||
7820,
|
||||
30012000,
|
||||
500000000000000000000000000000000008000000000000, //65
|
||||
#GOGOEND
|
||||
|
||||
2222,
|
||||
7,
|
||||
#BARLINEOFF
|
||||
00000008,
|
||||
0,
|
||||
0, //70
|
||||
#END
|
||||
|
||||
|
||||
COURSE:Easy
|
||||
LEVEL:3
|
||||
BALLOON:5,4,16,8,17,17
|
||||
SCOREINIT:770,8240
|
||||
SCOREDIFF:273
|
||||
|
||||
#START
|
||||
11,
|
||||
11,
|
||||
11,
|
||||
70000800,
|
||||
|
||||
1110,
|
||||
1110,
|
||||
1110,
|
||||
78, //8
|
||||
|
||||
11,
|
||||
1110,
|
||||
11,
|
||||
1110,
|
||||
|
||||
1011,
|
||||
1011,
|
||||
7,
|
||||
0008, //16
|
||||
|
||||
11,
|
||||
11,
|
||||
7,
|
||||
8,
|
||||
|
||||
11,
|
||||
11,
|
||||
2,
|
||||
500000000000000000000000000008000000000000000000, //24
|
||||
|
||||
1202,
|
||||
0202,
|
||||
07000000,
|
||||
00000008,
|
||||
|
||||
01,
|
||||
200000000000000000500000000000000000000008000000,
|
||||
0,
|
||||
24, //32
|
||||
|
||||
1110,
|
||||
11,
|
||||
1110,
|
||||
11,
|
||||
|
||||
1110,
|
||||
1110,
|
||||
1111,
|
||||
1110, //40
|
||||
|
||||
3,
|
||||
3,
|
||||
3,
|
||||
3,
|
||||
|
||||
33,
|
||||
33,
|
||||
3333,
|
||||
600000000000000000000000000000000000000000000008,
|
||||
0, //49
|
||||
|
||||
#GOGOSTART
|
||||
1110,
|
||||
2220,
|
||||
1110,
|
||||
500000000000000000000000000008000000000000000000,
|
||||
|
||||
1110,
|
||||
2220,
|
||||
1110,
|
||||
500000000000000000000000000008000000000000000000, //57
|
||||
|
||||
32,
|
||||
1120,
|
||||
32,
|
||||
1120,
|
||||
|
||||
32,
|
||||
1120,
|
||||
32,
|
||||
500000000000000000000000000008000000000000000000, //65
|
||||
#GOGOEND
|
||||
|
||||
3,
|
||||
7,
|
||||
#BARLINEOFF
|
||||
00000008,
|
||||
0,
|
||||
0, //70
|
||||
#END
|
||||
Reference in New Issue
Block a user