tja
This commit is contained in:
458
tja/37.tja
Normal file
458
tja/37.tja
Normal file
@@ -0,0 +1,458 @@
|
||||
//TJADB Project
|
||||
TITLE:Nagisa no Andromeda
|
||||
TITLEJA:渚のアンドロメダ
|
||||
SUBTITLE:--Frenesi
|
||||
BPM:154
|
||||
WAVE:Nagisa no Andromeda.ogg
|
||||
OFFSET:-1.812
|
||||
DEMOSTART:55.570
|
||||
|
||||
COURSE:Oni
|
||||
LEVEL:8
|
||||
BALLOON:70
|
||||
SCOREINIT:460
|
||||
SCOREDIFF:105
|
||||
|
||||
|
||||
#START
|
||||
|
||||
|
||||
0020210221102111,//1
|
||||
|
||||
#GOGOSTART
|
||||
7,
|
||||
,
|
||||
,
|
||||
0008,
|
||||
1010201210102010,
|
||||
1010201210102000,
|
||||
30430430,
|
||||
0600,
|
||||
000000000000000000000008000000000000300000000000,
|
||||
00300222,//11
|
||||
|
||||
#GOGOEND
|
||||
11111121,
|
||||
11111121,
|
||||
11111121,
|
||||
11111121,
|
||||
11111121,
|
||||
11111121,
|
||||
11111143,
|
||||
00430222,
|
||||
1010101010112010,
|
||||
1010101010122010,
|
||||
1010101010112010,
|
||||
1010101010122010,
|
||||
1010101010112010,
|
||||
1010101010122010,
|
||||
1010101010112010,
|
||||
03030222,
|
||||
10210021,
|
||||
00211020,
|
||||
10210021,
|
||||
00211021,
|
||||
01210121,
|
||||
01210120,
|
||||
10212121,
|
||||
0010200022221121,
|
||||
11221221,
|
||||
11221221,
|
||||
1110201210102010,
|
||||
1110201210102000,
|
||||
1011202010102020,
|
||||
1011202010102020,
|
||||
100000000000500000000000000000000000000008000000,
|
||||
1111203000202020,
|
||||
11221221,
|
||||
11221221,
|
||||
1110201210102010,
|
||||
1110201210102000,
|
||||
3000103000111030,
|
||||
0010300110101010,
|
||||
3000103000111030,
|
||||
03330444,
|
||||
,
|
||||
4000221122112212,
|
||||
1000100010221021,
|
||||
1010102000212011,
|
||||
1000100010221021,
|
||||
1010102000200210,
|
||||
1000100010221021,
|
||||
1010102000212011,
|
||||
1000100010221021,
|
||||
1010102000200210,
|
||||
1001221000102012,
|
||||
1001221000102012,
|
||||
1002112021112021,
|
||||
23,
|
||||
2222111122112212,
|
||||
1011202210112022,
|
||||
1011202210112022,
|
||||
1011201210112022,
|
||||
1011201210102000,
|
||||
1011202210112022,
|
||||
1011202210112022,
|
||||
100000000000500000000000000000000000000008000000,
|
||||
1111203000202020,
|
||||
1011202210112022,
|
||||
1011202210112022,
|
||||
1011201210112022,
|
||||
1011201210102000,
|
||||
3000103000111030,
|
||||
0010300110101010,
|
||||
3000103000111030,
|
||||
03330444,
|
||||
,
|
||||
4000221122112212,//84
|
||||
|
||||
#GOGOSTART
|
||||
1011102011112020,
|
||||
1012102011212020,
|
||||
1011102011112020,
|
||||
1012102011221120,
|
||||
1011102011112020,
|
||||
1012102011221120,
|
||||
30430430,
|
||||
0600,
|
||||
000000000000000000000000000000000008000000000000,
|
||||
|
||||
|
||||
#END
|
||||
|
||||
|
||||
COURSE:Hard
|
||||
LEVEL:5
|
||||
BALLOON:50,10
|
||||
SCOREINIT:590
|
||||
SCOREDIFF:140
|
||||
|
||||
#START
|
||||
,//1
|
||||
|
||||
#GOGOSTART
|
||||
7,
|
||||
,
|
||||
,
|
||||
0008,
|
||||
11101110,
|
||||
11110020,
|
||||
30030030,
|
||||
0600,
|
||||
000000000000000000000008000000000000300000000000,
|
||||
0300,//11
|
||||
|
||||
#GOGOEND
|
||||
1112,
|
||||
1112,
|
||||
1112,
|
||||
1112,
|
||||
1112,
|
||||
1112,
|
||||
500000000000000000000000000000000000000000000008,
|
||||
,
|
||||
10101120,
|
||||
1112,
|
||||
10101120,
|
||||
1112,
|
||||
10101120,
|
||||
1112,
|
||||
10101120,
|
||||
500000000000000000000008000000000000000000000000,
|
||||
10211000,
|
||||
10211010,
|
||||
10211000,
|
||||
1,
|
||||
10211000,
|
||||
10211010,
|
||||
10211000,
|
||||
1,
|
||||
11110220,
|
||||
11110220,
|
||||
10110121,
|
||||
01100020,
|
||||
10110220,
|
||||
10110220,
|
||||
100000000000500000000000000000000000000000000008,
|
||||
,
|
||||
11110220,
|
||||
11110220,
|
||||
10110121,
|
||||
02200000,
|
||||
3000103000111030,
|
||||
01300000,
|
||||
3000103000111030,
|
||||
03330444,
|
||||
,
|
||||
,
|
||||
1110,
|
||||
1010002000222000,
|
||||
1110,
|
||||
1010002000222000,
|
||||
1110,
|
||||
1010002000222000,
|
||||
1110,
|
||||
1010002000222000,
|
||||
10102201,
|
||||
1120,
|
||||
10102201,
|
||||
17,
|
||||
08,
|
||||
11110220,
|
||||
11110220,
|
||||
10110121,
|
||||
01100020,
|
||||
10110220,
|
||||
10110220,
|
||||
100000000000500000000000000000000000000000000008,
|
||||
,
|
||||
11110220,
|
||||
11110220,
|
||||
10110121,
|
||||
02200000,
|
||||
3000103000111030,
|
||||
01300000,
|
||||
3000103000111030,
|
||||
03330444,
|
||||
,
|
||||
,//84
|
||||
|
||||
#GOGOSTART
|
||||
10111022,
|
||||
10111022,
|
||||
10111022,
|
||||
1000101010222020,
|
||||
10111022,
|
||||
1000101010222020,
|
||||
30030030,
|
||||
0600,
|
||||
000000000000000000000000000000000008000000000000,
|
||||
,
|
||||
,
|
||||
,
|
||||
,
|
||||
#END
|
||||
|
||||
COURSE:Normal
|
||||
LEVEL:4
|
||||
BALLOON:35,8
|
||||
SCOREINIT:700
|
||||
SCOREDIFF:150
|
||||
|
||||
#START
|
||||
,//1
|
||||
|
||||
#GOGOSTART
|
||||
7,
|
||||
,
|
||||
,
|
||||
0008,
|
||||
11101000,
|
||||
11101000,
|
||||
30030030,
|
||||
0600,
|
||||
000000000000000000000008000000000000300000000000,
|
||||
0300,//11
|
||||
|
||||
#GOGOEND
|
||||
1002,
|
||||
1002,
|
||||
1002,
|
||||
1002,
|
||||
1002,
|
||||
1002,
|
||||
500000000000000000000000000000000000000000000008,
|
||||
,
|
||||
1102,
|
||||
1102,
|
||||
1102,
|
||||
1102,
|
||||
1102,
|
||||
1102,
|
||||
1102,
|
||||
500000000000000000000008000000000000000000000000,
|
||||
10011000,
|
||||
10011000,
|
||||
10011000,
|
||||
1,
|
||||
20011000,
|
||||
20011000,
|
||||
20011000,
|
||||
1,
|
||||
11100010,
|
||||
11100010,
|
||||
11101010,
|
||||
11100000,
|
||||
11100020,
|
||||
11100020,
|
||||
100000000000500000000000000000000000000000000008,
|
||||
,
|
||||
11100010,
|
||||
11100010,
|
||||
11101010,
|
||||
11100000,
|
||||
5,
|
||||
000000000000000008000000000000000000000000000000,
|
||||
6,
|
||||
000000000000000008000000000000300000300000300000,
|
||||
,
|
||||
,
|
||||
2220,
|
||||
11020000,
|
||||
1110,
|
||||
11020000,
|
||||
2220,
|
||||
11020000,
|
||||
1110,
|
||||
11020000,
|
||||
10102200,
|
||||
1120,
|
||||
10102200,
|
||||
17,
|
||||
08,
|
||||
11100020,
|
||||
11100020,
|
||||
11101010,
|
||||
11100000,
|
||||
11102020,
|
||||
11102020,
|
||||
100000000000500000000000000000000000000000000008,
|
||||
,
|
||||
11100020,
|
||||
11100020,
|
||||
11101010,
|
||||
11100000,
|
||||
5,
|
||||
000000000000000008000000000000000000000000000000,
|
||||
6,
|
||||
000000000000000008000000000000300000300000300000,
|
||||
,
|
||||
,//84
|
||||
|
||||
#GOGOSTART
|
||||
10111020,
|
||||
10111000,
|
||||
10111020,
|
||||
10111000,
|
||||
11101110,
|
||||
11102220,
|
||||
30030030,
|
||||
0600,
|
||||
000000000000000000000000000000000008000000000000,
|
||||
,
|
||||
,
|
||||
,
|
||||
,
|
||||
#END
|
||||
|
||||
COURSE:Easy
|
||||
LEVEL:4
|
||||
BALLOON:30,6
|
||||
SCOREINIT:650
|
||||
SCOREDIFF:130
|
||||
|
||||
#START
|
||||
,//1
|
||||
|
||||
#GOGOSTART
|
||||
7,
|
||||
,
|
||||
,
|
||||
0008,
|
||||
11,
|
||||
1110,
|
||||
30030030,
|
||||
0600,
|
||||
000000000000000000000008000000000000000000000000,
|
||||
,//11
|
||||
|
||||
#GOGOEND
|
||||
1001,
|
||||
1001,
|
||||
1001,
|
||||
1001,
|
||||
1001,
|
||||
1001,
|
||||
500000000000000000000000000000000000000000000008,
|
||||
,
|
||||
1002,
|
||||
1002,
|
||||
1002,
|
||||
1002,
|
||||
1002,
|
||||
1002,
|
||||
1002,
|
||||
500000000000000000000008000000000000000000000000,
|
||||
12,
|
||||
1022,
|
||||
21,
|
||||
1,
|
||||
12,
|
||||
1022,
|
||||
21,
|
||||
1,
|
||||
1101,
|
||||
1101,
|
||||
11,
|
||||
1,
|
||||
1101,
|
||||
1101,
|
||||
100000000000500000000000000000000000000000000008,
|
||||
,
|
||||
1101,
|
||||
1101,
|
||||
11,
|
||||
1,
|
||||
5,
|
||||
000000000000000008000000000000000000000000000000,
|
||||
6,
|
||||
000000000000000008000000000000300000300000300000,
|
||||
,
|
||||
,
|
||||
2220,
|
||||
22,
|
||||
1110,
|
||||
11,
|
||||
2220,
|
||||
22,
|
||||
1110,
|
||||
11,
|
||||
1011,
|
||||
12,
|
||||
1011,
|
||||
17,
|
||||
08,
|
||||
1101,
|
||||
1101,
|
||||
11,
|
||||
1,
|
||||
1101,
|
||||
1101,
|
||||
100000000000500000000000000000000000000000000008,
|
||||
,
|
||||
1101,
|
||||
1101,
|
||||
11,
|
||||
1,
|
||||
5,
|
||||
000000000000000008000000000000000000000000000000,
|
||||
6,
|
||||
000000000000000008000000000000300000300000300000,
|
||||
,
|
||||
,//84
|
||||
|
||||
#GOGOSTART
|
||||
1112,
|
||||
1110,
|
||||
1112,
|
||||
1110,
|
||||
1112,
|
||||
1110,
|
||||
30030030,
|
||||
0600,
|
||||
000000000000000000000000000000000008000000000000,
|
||||
,
|
||||
,
|
||||
,
|
||||
,
|
||||
#END
|
||||
Reference in New Issue
Block a user