tja
This commit is contained in:
350
tja/377.tja
Normal file
350
tja/377.tja
Normal file
@@ -0,0 +1,350 @@
|
||||
//TJADB Project
|
||||
TITLE:Koi no Shohousen
|
||||
TITLEJA:恋の処方箋
|
||||
SUBTITLE:--Bana Inoue feat. M
|
||||
BPM:185
|
||||
WAVE:Koi no Shohousen.ogg
|
||||
OFFSET:-1.600
|
||||
DEMOSTART:66.451
|
||||
|
||||
COURSE:Oni
|
||||
LEVEL:7
|
||||
SCOREINIT:790
|
||||
SCOREDIFF:228
|
||||
|
||||
|
||||
#START
|
||||
|
||||
|
||||
,
|
||||
,
|
||||
,
|
||||
0001,
|
||||
1,
|
||||
00000101,
|
||||
1,
|
||||
00000101,
|
||||
1222,
|
||||
30303306,
|
||||
0,
|
||||
000000000000000000000000000008000000000000000000,
|
||||
10101101,
|
||||
2000200220100010,
|
||||
01202121,
|
||||
21202120,
|
||||
1011101110111010,
|
||||
40403303,
|
||||
0120,
|
||||
12102000,
|
||||
1120,
|
||||
1020201020122010,
|
||||
0120,
|
||||
1020101220101000,
|
||||
0110,
|
||||
3000300220102010,
|
||||
0010200010102011,
|
||||
11201120,
|
||||
1000200010102011,
|
||||
1010202220100010,
|
||||
0010200010102011,
|
||||
11201120,
|
||||
01201120,
|
||||
1010201210201220,
|
||||
11010103,
|
||||
0010201000202202,
|
||||
11010104,
|
||||
0010201000202202,
|
||||
11010103,
|
||||
0010201000202202,
|
||||
1001101000200040,
|
||||
0010201022202220,
|
||||
10121010,
|
||||
1020100010022020,
|
||||
10121010,
|
||||
1020100010022020,
|
||||
30430430,
|
||||
43043340,
|
||||
600000000000000000000000000000000008000000200000,
|
||||
0020101011102000,//50
|
||||
|
||||
#GOGOSTART
|
||||
1000200210102010,
|
||||
0010201000102002,
|
||||
1010200210102000,
|
||||
1110200210102000,
|
||||
1002100210102010,
|
||||
0010201000102220,
|
||||
1000200210111030,
|
||||
03030120,
|
||||
1110100010102010,
|
||||
0010201000102002,
|
||||
1010200210102000,
|
||||
1110200210102000,
|
||||
10101121,
|
||||
0010201000102220,
|
||||
10201101,
|
||||
0010001020122020,
|
||||
11012102,
|
||||
3000300220300060,
|
||||
000000000000000000000000000000000000000008000000,
|
||||
|
||||
#GOGOEND
|
||||
|
||||
|
||||
#END
|
||||
|
||||
|
||||
COURSE:Hard
|
||||
LEVEL:5
|
||||
BALLOON:9
|
||||
SCOREINIT:830
|
||||
SCOREDIFF:220
|
||||
|
||||
#START
|
||||
,
|
||||
,
|
||||
,
|
||||
0001,
|
||||
1,
|
||||
00000101,
|
||||
1,
|
||||
00000101,
|
||||
1222,
|
||||
30303306,
|
||||
,
|
||||
000000000000000000000000000008000000000000000000,
|
||||
10101101,
|
||||
20202201,
|
||||
01101010,
|
||||
1111,
|
||||
70000800,
|
||||
40403303,
|
||||
0120,
|
||||
1120,
|
||||
1120,
|
||||
10110101,
|
||||
0120,
|
||||
1122,
|
||||
0110,
|
||||
30303303,
|
||||
01201120,
|
||||
10201120,
|
||||
10201120,
|
||||
10220101,
|
||||
01201120,
|
||||
10201120,
|
||||
00201120,
|
||||
11010200,
|
||||
11010103,
|
||||
,
|
||||
11010104,
|
||||
,
|
||||
11010103,
|
||||
,
|
||||
10110104,
|
||||
0011,
|
||||
10121010,
|
||||
12101010,
|
||||
500000000000000000000000000000000000000000000008,
|
||||
0033,
|
||||
30430430,
|
||||
43043000,
|
||||
600000000000000000000000000000000000000000000008,
|
||||
,//50
|
||||
|
||||
#GOGOSTART
|
||||
10101121,
|
||||
01210120,
|
||||
10201120,
|
||||
11201020,
|
||||
10101121,
|
||||
01210102,
|
||||
10001103,
|
||||
03030000,
|
||||
10101121,
|
||||
01210120,
|
||||
10201120,
|
||||
11201020,
|
||||
10101121,
|
||||
01210102,
|
||||
10001101,
|
||||
01010100,
|
||||
10012000,
|
||||
30303306,
|
||||
000000000000000000000000000000000000000000000008,//69
|
||||
|
||||
#GOGOEND
|
||||
,
|
||||
,
|
||||
,
|
||||
#END
|
||||
|
||||
COURSE:Normal
|
||||
LEVEL:5
|
||||
BALLOON:6,6
|
||||
SCOREINIT:1020
|
||||
SCOREDIFF:270
|
||||
|
||||
#START
|
||||
,
|
||||
,
|
||||
,
|
||||
,
|
||||
1,
|
||||
,
|
||||
1,
|
||||
,
|
||||
1,
|
||||
30303306,
|
||||
,
|
||||
000000000000000000000000000008000000000000000000,
|
||||
1110,
|
||||
30303303,
|
||||
0111,
|
||||
1111,
|
||||
70000800,
|
||||
30303303,
|
||||
02,
|
||||
1120,
|
||||
12,
|
||||
10110101,
|
||||
0120,
|
||||
1122,
|
||||
0110,
|
||||
30303303,
|
||||
0202,
|
||||
1202,
|
||||
1202,
|
||||
10220101,
|
||||
0202,
|
||||
1202,
|
||||
00101005,
|
||||
000000000000000000000008000000000000000000000000,
|
||||
11010103,
|
||||
,
|
||||
22020204,
|
||||
,
|
||||
11010103,
|
||||
,
|
||||
20220204,
|
||||
0011,
|
||||
1001,
|
||||
0110,
|
||||
500000000000000000000000000000000000000000000008,
|
||||
0033,
|
||||
30030030,
|
||||
03003000,
|
||||
600000000000000000000000000000000000000000000008,
|
||||
,//50
|
||||
|
||||
#GOGOSTART
|
||||
10101101,
|
||||
00110100,
|
||||
5,
|
||||
000000000000000000000008000000000000000000000000,
|
||||
10101101,
|
||||
00110101,
|
||||
10001107,
|
||||
08,
|
||||
10101101,
|
||||
00110100,
|
||||
5,
|
||||
000000000000000000000008000000000000000000000000,
|
||||
10101101,
|
||||
00110101,
|
||||
10001101,
|
||||
01010100,
|
||||
500000000000000000000000000008000000000000000000,
|
||||
30303306,
|
||||
000000000000000000000000000000000000000008000000,//69
|
||||
|
||||
#GOGOEND
|
||||
,
|
||||
,
|
||||
,
|
||||
#END
|
||||
|
||||
COURSE:Easy
|
||||
LEVEL:3
|
||||
BALLOON:4,3,3,4,4
|
||||
SCOREINIT:860
|
||||
SCOREDIFF:260
|
||||
|
||||
#START
|
||||
,
|
||||
,
|
||||
,
|
||||
,
|
||||
1,
|
||||
,
|
||||
1,
|
||||
,
|
||||
1,
|
||||
30303006,
|
||||
,
|
||||
000000000000000000000000000008000000000000000000,
|
||||
11,
|
||||
30303003,
|
||||
01,
|
||||
11,
|
||||
70000800,
|
||||
30303003,
|
||||
02,
|
||||
1,
|
||||
12,
|
||||
10000001,
|
||||
02,
|
||||
1022,
|
||||
01,
|
||||
30303003,
|
||||
0202,
|
||||
0202,
|
||||
0202,
|
||||
00200101,
|
||||
0202,
|
||||
0201,
|
||||
0110,
|
||||
1,
|
||||
500000000000000000000008000000000000000000300000,
|
||||
,
|
||||
70008004,
|
||||
,
|
||||
500000000000000000000008000000000000000000300000,
|
||||
,
|
||||
70008004,
|
||||
,
|
||||
11,
|
||||
1110,
|
||||
500000000000000000000000000000000000000000000008,
|
||||
,
|
||||
30030030,
|
||||
03003000,
|
||||
600000000000000000000000000000000000000000000008,
|
||||
,//50
|
||||
|
||||
#GOGOSTART
|
||||
1110,
|
||||
1110,
|
||||
5,
|
||||
000000000000000000000008000000000000000000000000,
|
||||
1110,
|
||||
1110,
|
||||
10001007,
|
||||
08,
|
||||
1110,
|
||||
1110,
|
||||
5,
|
||||
000000000000000000000008000000000000000000000000,
|
||||
1110,
|
||||
1110,
|
||||
10001007,
|
||||
08,
|
||||
11,
|
||||
30303006,
|
||||
000000000000000000000000000000000000000008000000,//69
|
||||
|
||||
#GOGOEND
|
||||
,
|
||||
,
|
||||
,
|
||||
#END
|
||||
Reference in New Issue
Block a user