tja
This commit is contained in:
385
tja/398.tja
Normal file
385
tja/398.tja
Normal file
@@ -0,0 +1,385 @@
|
||||
//TJADB Project
|
||||
TITLE:Canadea
|
||||
TITLEJA:カナデア
|
||||
SUBTITLE:--Yuuji Masubuchi feat. Mika Sato
|
||||
BPM:132
|
||||
WAVE:Canadea.ogg
|
||||
OFFSET:-2.042
|
||||
DEMOSTART:82.032
|
||||
|
||||
COURSE:Oni
|
||||
LEVEL:8
|
||||
BALLOON:14
|
||||
SCOREINIT:460
|
||||
SCOREDIFF:110
|
||||
|
||||
|
||||
#START
|
||||
|
||||
|
||||
11210011,
|
||||
200000100000000000100000200000202010100000200200,
|
||||
1002201002203000,
|
||||
222022201020100000000000,
|
||||
102020102220,
|
||||
1002002001012022,
|
||||
100000000200100000200000100000202020200000300000,
|
||||
0010101110101011,
|
||||
100000200000200200100000300000003000000030000000,
|
||||
1001100020020010,
|
||||
0010200220011020,
|
||||
1010200200102010,
|
||||
0011220200102000,
|
||||
1001100020020010,
|
||||
0010200220011020,
|
||||
1001102010011020,
|
||||
0011220200102210,
|
||||
1001102220012011,
|
||||
0010200220011020,
|
||||
1010202220102020,
|
||||
000000100100200000202020200000100000200000100000,
|
||||
1001102220012011,
|
||||
0010200220011020,
|
||||
1001102010202010,
|
||||
0011200021010220,
|
||||
1001102202102110,
|
||||
1001101020022210,
|
||||
1002102010021020,
|
||||
1002102011021020,
|
||||
1002102010021020,
|
||||
1002102011021222,
|
||||
1002102010021020,
|
||||
1022203000112210,
|
||||
1002102010021020,
|
||||
1002102010202210,
|
||||
1001102202102110,
|
||||
1001101020022210,
|
||||
1002102010021020,
|
||||
1002102010220202,
|
||||
1002102010021020,
|
||||
100222200300000100300000,
|
||||
1002102010202210,
|
||||
1001001210210101,
|
||||
1201001210210102,
|
||||
1222122222111111,//45
|
||||
|
||||
#GOGOSTART
|
||||
1122100210221120,
|
||||
1122100210221120,
|
||||
1122100210221120,
|
||||
23232322,
|
||||
1122100210221120,
|
||||
1122100210221120,
|
||||
1017000000000080,
|
||||
100000200000200000202020200000100100200200100000,
|
||||
1122100210221120,
|
||||
1122100210221120,
|
||||
1122100210221120,
|
||||
2030203020112210,
|
||||
11230221,
|
||||
1010203000112040,
|
||||
0010101110101011,
|
||||
1201221010103000,//61
|
||||
|
||||
#GOGOEND
|
||||
11210011,
|
||||
200000100000000000100000200000202010100000200200,
|
||||
100000000200200000100000000200200000200010001000,
|
||||
221122100000,
|
||||
102020102220,
|
||||
1002002001012022,
|
||||
100000000200100000200000100000202020200000300000,//68
|
||||
|
||||
#GOGOSTART
|
||||
0010101110101011,
|
||||
1010102212012040,
|
||||
0010101110101011,
|
||||
200200100200200200100200100000003000000030000000,
|
||||
|
||||
#GOGOEND
|
||||
|
||||
|
||||
#END
|
||||
|
||||
|
||||
COURSE:Hard
|
||||
LEVEL:8
|
||||
BALLOON:14,6,14,14
|
||||
SCOREINIT:520
|
||||
SCOREDIFF:130
|
||||
|
||||
#START
|
||||
11210011,
|
||||
2010001020211000,
|
||||
1020201000227000,
|
||||
08,
|
||||
102020102220,
|
||||
1002002001002022,
|
||||
1002102010202030,
|
||||
0010101110101011,
|
||||
100000100000100100100000200000002000000020000000,
|
||||
1001200000002010,
|
||||
0010200000021000,
|
||||
1001200000102010,
|
||||
0011200000102000,
|
||||
1001200000002010,
|
||||
0010200000021000,
|
||||
1001100010011020,
|
||||
0011220000002210,
|
||||
1001200000012010,
|
||||
0010200000012010,
|
||||
1001200000102010,
|
||||
0011202220102000,
|
||||
1001200000012010,
|
||||
0010200000012010,
|
||||
1001201010012010,
|
||||
0011200021010000,
|
||||
1001101101102000,
|
||||
1001101040000000,
|
||||
1001102010011020,
|
||||
1001102011011020,
|
||||
1001102010011020,
|
||||
1001102011021020,
|
||||
1001102010011020,
|
||||
100000200200200000500000000000000008000000000000,
|
||||
1001102010011020,
|
||||
1001102010202010,
|
||||
1001101101102110,
|
||||
1001101020000000,
|
||||
1001102010011020,
|
||||
1001102011021020,
|
||||
1001102010011020,
|
||||
100000200200200000500000000000000008000000000000,
|
||||
1001102030000000,
|
||||
1001001020020020,
|
||||
1001001020020020,
|
||||
10307008,//45
|
||||
|
||||
#GOGOSTART
|
||||
1020100010011020,
|
||||
1020100010011020,
|
||||
1020100010011020,
|
||||
03030322,
|
||||
1020100010011020,
|
||||
1020100010011020,
|
||||
1007000000000000,
|
||||
8334,
|
||||
1120100011011020,
|
||||
1120100011011020,
|
||||
1120100011011020,
|
||||
03030322,
|
||||
100000100000000000500000000000000008000000000000,
|
||||
100000100000000000500000000008000000000000100000,
|
||||
0010101110101011,
|
||||
1201100010103000,//61
|
||||
|
||||
#GOGOEND
|
||||
11210011,
|
||||
2010001020211000,
|
||||
1020201000227000,
|
||||
08,
|
||||
102020102220,
|
||||
1002002001002022,
|
||||
1002102010202030,//68
|
||||
|
||||
#GOGOSTART
|
||||
0010101110101011,
|
||||
1010101110201030,
|
||||
0010101110101011,
|
||||
200200000200200200000200100000003000000030000000,
|
||||
,
|
||||
,//74
|
||||
|
||||
#BARLINEOFF
|
||||
#GOGOEND
|
||||
,
|
||||
,
|
||||
#END
|
||||
|
||||
COURSE:Normal
|
||||
LEVEL:7
|
||||
BALLOON:26,10
|
||||
SCOREINIT:770
|
||||
SCOREDIFF:190
|
||||
|
||||
#START
|
||||
11110022,
|
||||
22003000,
|
||||
10010030,
|
||||
02,
|
||||
111100,
|
||||
1001001001000000,
|
||||
1001001010000070,
|
||||
,
|
||||
08,
|
||||
1000000010010010,
|
||||
,
|
||||
11100021,
|
||||
,
|
||||
1000000010010010,
|
||||
,
|
||||
11101111,
|
||||
,
|
||||
1000000010010010,
|
||||
,
|
||||
11100021,
|
||||
0022,
|
||||
1000000010010010,
|
||||
,
|
||||
11101111,
|
||||
0000000022020000,
|
||||
1001001010000000,
|
||||
1001001010000000,
|
||||
1000100010011000,
|
||||
1001100010000000,
|
||||
1000100010011000,
|
||||
1001100020000000,
|
||||
1000100010011000,
|
||||
11030000,
|
||||
1000100010011000,
|
||||
2240,
|
||||
1001001010000000,
|
||||
1001001010000000,
|
||||
1000100010011000,
|
||||
1001100010000000,
|
||||
1000100010011000,
|
||||
11030000,
|
||||
1120,
|
||||
1001001010000000,
|
||||
2002002020000000,
|
||||
3330,//45
|
||||
|
||||
#GOGOSTART
|
||||
1000100010011000,
|
||||
1000100010011000,
|
||||
1000100010011000,
|
||||
02020220,
|
||||
1000100010011000,
|
||||
1000100010011000,
|
||||
7008,
|
||||
0333,
|
||||
1000100010011000,
|
||||
1000100010011000,
|
||||
1000100010011000,
|
||||
02020220,
|
||||
11030000,
|
||||
11030005,
|
||||
000000000000000000000000000000000000000000000008,
|
||||
00001110,//61
|
||||
|
||||
#GOGOEND
|
||||
11110022,
|
||||
22003000,
|
||||
10010030,
|
||||
02,
|
||||
111100,
|
||||
1001001001000000,
|
||||
1001001010000010,//68
|
||||
|
||||
#GOGOSTART
|
||||
01101110,
|
||||
11102011,
|
||||
01101110,
|
||||
100100100000200020002000,
|
||||
,
|
||||
,//74
|
||||
|
||||
#BARLINEOFF
|
||||
#GOGOEND
|
||||
,
|
||||
,
|
||||
#END
|
||||
|
||||
COURSE:Easy
|
||||
LEVEL:5
|
||||
BALLOON:20
|
||||
SCOREINIT:590
|
||||
SCOREDIFF:160
|
||||
|
||||
#START
|
||||
10010010,
|
||||
01001000,
|
||||
20020020,
|
||||
,
|
||||
11,
|
||||
1000000003000000,
|
||||
10101007,
|
||||
,
|
||||
08,
|
||||
1102,
|
||||
0201,
|
||||
1102,
|
||||
0201,
|
||||
1102,
|
||||
0201,
|
||||
10001011,
|
||||
,
|
||||
1102,
|
||||
0201,
|
||||
1102,
|
||||
0201,
|
||||
1102,
|
||||
0201,
|
||||
10001011,
|
||||
,
|
||||
3,
|
||||
13,
|
||||
1110,
|
||||
1110,
|
||||
1110,
|
||||
1110,
|
||||
1110,
|
||||
30030000,
|
||||
1110,
|
||||
2220,
|
||||
3,
|
||||
13,
|
||||
1110,
|
||||
1110,
|
||||
1110,
|
||||
30030000,
|
||||
1110,
|
||||
02,
|
||||
02,
|
||||
3330,//45
|
||||
|
||||
#GOGOSTART
|
||||
1212,
|
||||
1212,
|
||||
1212,
|
||||
1110,
|
||||
1212,
|
||||
1212,
|
||||
500000000000000000000000000000000000000000000008,
|
||||
,
|
||||
1212,
|
||||
1212,
|
||||
1212,
|
||||
1110,
|
||||
30030000,
|
||||
30030000,
|
||||
500000000000000000000000000000000000000000000008,
|
||||
03,//61
|
||||
|
||||
#GOGOEND
|
||||
10010010,
|
||||
01001000,
|
||||
20020020,
|
||||
,
|
||||
11,
|
||||
1000000003000000,
|
||||
1110,//68
|
||||
|
||||
#GOGOSTART
|
||||
1212,
|
||||
1210,
|
||||
1212,
|
||||
1210,
|
||||
,
|
||||
,//74
|
||||
|
||||
#BARLINEOFF
|
||||
#GOGOEND
|
||||
,
|
||||
,
|
||||
#END
|
||||
Reference in New Issue
Block a user