tja
This commit is contained in:
634
tja/400.tja
Normal file
634
tja/400.tja
Normal file
@@ -0,0 +1,634 @@
|
||||
//TJADB Project
|
||||
TITLE:Sacred Ruin
|
||||
TITLEJA:セイクリッド ルイン
|
||||
SUBTITLE:--Seifu Meigetsu [Drop × Yura Hatsuki] & GIW
|
||||
BPM:186
|
||||
WAVE:Sacred Ruin.ogg
|
||||
OFFSET:-1.806
|
||||
DEMOSTART:55.992
|
||||
|
||||
COURSE:Edit
|
||||
LEVEL:10
|
||||
SCOREINIT:260
|
||||
SCOREDIFF:80
|
||||
|
||||
|
||||
#START
|
||||
|
||||
|
||||
33220203,
|
||||
03020222,
|
||||
300000000222200000000300,
|
||||
2111212121112111,
|
||||
1030202110221030,
|
||||
0030002011212020,
|
||||
1110203000222030,
|
||||
0022202022112211,//8
|
||||
|
||||
#GOGOSTART
|
||||
1021102210211022,
|
||||
1021102210221210,
|
||||
1021102210221202,
|
||||
1021102210221221,
|
||||
1212103000121120,
|
||||
0012122000121211,
|
||||
1212121211111040,
|
||||
04040400,//16
|
||||
|
||||
#GOGOEND
|
||||
1010101010221010,
|
||||
1010101011221010,
|
||||
1010101010221010,
|
||||
1010101011221010,
|
||||
1020201010221010,
|
||||
1020201011221011,
|
||||
1010221011221050,
|
||||
000000000000000000000000000000000008000000000000,
|
||||
1022101012102010,
|
||||
1212101012221010,
|
||||
1022101012102010,
|
||||
1212101012221010,
|
||||
1022101210101012,
|
||||
1010101210101012,
|
||||
1010221012221050,
|
||||
000000000000000000000000000000000008000000000000,
|
||||
1000202000102012,
|
||||
21201120,
|
||||
1000202000102012,
|
||||
2210101012121222,
|
||||
1011103000121030,
|
||||
0011103000121210,
|
||||
2110211021102110,
|
||||
000000400000400000600000000000000000000008000000,
|
||||
111222111222,
|
||||
100010001000200020001000100000100100200000000000,//42
|
||||
|
||||
#GOGOSTART
|
||||
1011201011212011,
|
||||
1011201021012011,
|
||||
1011201011212012,
|
||||
200200100000200000500000000000000000000008000000,
|
||||
2111221121112211,
|
||||
2211222122112221,
|
||||
2111221122211020,
|
||||
3030303000402211,
|
||||
1011201011212011,
|
||||
1011201021012011,
|
||||
1011201011212012,
|
||||
200200100000200000500000000000000000000008000000,
|
||||
1110404000300040,
|
||||
0040004000112011,
|
||||
1010121022111030,
|
||||
03302222,//58
|
||||
|
||||
#GOGOEND
|
||||
1121112211222010,
|
||||
0022102010210020,
|
||||
500000000000000000800000202020200100100000100000,
|
||||
0022102000201111,
|
||||
2111221121112211,
|
||||
2211222122112221,
|
||||
1012002010120020,
|
||||
1212101000202222,
|
||||
1122112211221122,
|
||||
1122121211221212,
|
||||
1122112211221010,
|
||||
0122101020221212,
|
||||
1011103000121030,
|
||||
0011103000121010,
|
||||
1010121011111030,
|
||||
03060000,
|
||||
000000000008000000000000200010001000100010001000,
|
||||
32220203,
|
||||
00202022,
|
||||
32220203,
|
||||
0022203022102110,
|
||||
1122112211221122,
|
||||
1122121211221212,
|
||||
1122112211221122,
|
||||
1030303000402211,
|
||||
1030303000402211,//84
|
||||
|
||||
#GOGOSTART
|
||||
1011201011212021,
|
||||
1011201021112021,
|
||||
1011201011212012,
|
||||
100200100000200000500000000000000000000008000000,
|
||||
1110404000300040,
|
||||
0040004000112011,
|
||||
1010121022111030,
|
||||
03302222,
|
||||
1021102210211022,
|
||||
1021102210221210,
|
||||
1021102210221202,
|
||||
1021102210221221,
|
||||
1212103000121120,
|
||||
0012122000121211,
|
||||
1212121211111040,
|
||||
0040004000400022,
|
||||
1212103012103030,//101
|
||||
|
||||
#GOGOEND
|
||||
|
||||
|
||||
#END
|
||||
|
||||
|
||||
COURSE:Oni
|
||||
LEVEL:9
|
||||
SCOREINIT:290
|
||||
SCOREDIFF:80
|
||||
|
||||
|
||||
#START
|
||||
|
||||
|
||||
33000003,
|
||||
03000000,
|
||||
33000003,
|
||||
0030112112112110,
|
||||
33020203,
|
||||
0030002011211020,
|
||||
1110203000222030,
|
||||
0020202020201111,//8
|
||||
|
||||
#GOGOSTART
|
||||
1021102010211020,
|
||||
1021102010211020,
|
||||
1122102010221202,
|
||||
1022102010221122,
|
||||
1212103000121110,
|
||||
0011121000121211,
|
||||
1010101011111040,
|
||||
0040004000400011,//16
|
||||
|
||||
#GOGOEND
|
||||
1000100010222010,
|
||||
0010101011221020,
|
||||
1000100010222010,
|
||||
0010101011221020,
|
||||
1022201000102210,
|
||||
0022201011221011,
|
||||
1000221000222050,
|
||||
000000000000000000000000000000000008000000000000,
|
||||
1022102010221020,
|
||||
0011201020112110,
|
||||
1022102010221020,
|
||||
0011201020112110,
|
||||
1022201000102210,
|
||||
0022201011221011,
|
||||
1000221000222050,
|
||||
000000000000000000000000000000000008000000000000,
|
||||
1000222000200010,
|
||||
01201020,
|
||||
1000222000200010,
|
||||
0020201022102222,
|
||||
1011103000121030,
|
||||
0011103000121010,
|
||||
2110211021102110,
|
||||
000000400000400000600000000000000000000008000000,
|
||||
1122,
|
||||
3000300040112000,//42
|
||||
|
||||
#GOGOSTART
|
||||
1011201011201121,
|
||||
1021102021102111,
|
||||
2011201011201012,
|
||||
000200100000100000500000000000000000000008000000,
|
||||
2111211121112111,
|
||||
2211221122112211,
|
||||
2111211120121020,
|
||||
3030303000401111,
|
||||
1011201011201121,
|
||||
1021102021102111,
|
||||
2011201011201012,
|
||||
000200100000100000500000000000000000000008000000,
|
||||
1110404000300040,
|
||||
0040004000102211,
|
||||
1010111022222030,
|
||||
03300040,//58
|
||||
|
||||
#GOGOEND
|
||||
1121112111222010,
|
||||
0022102010210020,
|
||||
500000000000000008000000101010100100100000100000,
|
||||
0022102000201111,
|
||||
2111211121112111,
|
||||
2211221122112211,
|
||||
1021002010210020,
|
||||
1212101000202222,
|
||||
1022101110221011,
|
||||
1022120210221212,
|
||||
1022101110221010,
|
||||
0122101000221212,
|
||||
1011103000121030,
|
||||
0011103000121010,
|
||||
1010111011111030,
|
||||
03060000,
|
||||
000000000008000000000000200010001000100010001000,
|
||||
30000003,
|
||||
00000211,
|
||||
30000003,
|
||||
0020003000202211,
|
||||
1011101110121021,
|
||||
1011101110121021,
|
||||
1011101110121021,
|
||||
1030303000400021,
|
||||
1030303000401111,//84
|
||||
|
||||
#GOGOSTART
|
||||
1021102011201121,
|
||||
1011201021102111,
|
||||
2011201021102011,
|
||||
100100100000200000500000000000000000000008000000,
|
||||
1110404000300040,
|
||||
0040004000102211,
|
||||
1010111022222030,
|
||||
03300040,
|
||||
1021102010211020,
|
||||
1021102010211020,
|
||||
1122102010221202,
|
||||
1022102010221122,
|
||||
1212103000111210,
|
||||
0012111000121211,
|
||||
2010201021111040,
|
||||
0040004000400022,
|
||||
1212103000404030,//101
|
||||
|
||||
#GOGOEND
|
||||
|
||||
|
||||
#END
|
||||
|
||||
|
||||
COURSE:Hard
|
||||
LEVEL:7
|
||||
BALLOON:8,8
|
||||
SCOREINIT:470
|
||||
SCOREDIFF:123
|
||||
|
||||
#START
|
||||
33000003,
|
||||
03000000,
|
||||
33000003,
|
||||
03040400,
|
||||
33000003,
|
||||
03000000,
|
||||
22230223,
|
||||
02222222,//8
|
||||
|
||||
#GOGOSTART
|
||||
30220201,
|
||||
01010100,
|
||||
1110202000202010,
|
||||
000000200000200000500000000000000008000000000000,
|
||||
3000103000111030,
|
||||
0011103000111010,
|
||||
11111113,
|
||||
03030300,//16
|
||||
|
||||
#GOGOEND
|
||||
10110121,
|
||||
0011101010001000,
|
||||
10110121,
|
||||
0011101010001000,
|
||||
11210121,
|
||||
0010201000000011,
|
||||
10210125,
|
||||
000000000000000000000000000000000008000000000000,
|
||||
10110121,
|
||||
0022202020002000,
|
||||
10110121,
|
||||
0022202020002000,
|
||||
11210121,
|
||||
0010201000000011,
|
||||
10210125,
|
||||
000000000000000000000000000000000008000000000000,
|
||||
10220201,
|
||||
0212,
|
||||
10220201,
|
||||
00000222,
|
||||
3000103000111030,
|
||||
0011103000111010,
|
||||
21212125,
|
||||
000000000000000000000000000000000000000000000008,
|
||||
,
|
||||
,//42
|
||||
|
||||
#GOGOSTART
|
||||
1110100011101010,
|
||||
0010100011101010,
|
||||
0011101000100050,
|
||||
000000000000000000000000000000000008000000000000,
|
||||
2220200020102010,
|
||||
0022200020102010,
|
||||
0022200000202020,
|
||||
11110400,
|
||||
1110100011101010,
|
||||
0010100011101010,
|
||||
0011101000100050,
|
||||
000000000000000000000000000000000008000000000000,
|
||||
33440404,
|
||||
0040004000000011,
|
||||
10002003,
|
||||
0300,//58
|
||||
|
||||
#GOGOEND
|
||||
1110100011101010,
|
||||
0010100010010010,
|
||||
500000000000000000000000000008000000000000700000,
|
||||
0000000080002220,
|
||||
2020200022202000,
|
||||
2020200022202000,
|
||||
1001001020020020,
|
||||
7000000000800011,
|
||||
10110202,
|
||||
0000200020002011,
|
||||
10110202,
|
||||
02220000,
|
||||
3000103000111030,
|
||||
0011103000111010,
|
||||
11111115,
|
||||
,
|
||||
000000000000000000000008000000000000000000000000,
|
||||
30000003,
|
||||
,
|
||||
30000003,
|
||||
00030000,
|
||||
1110100020101010,
|
||||
0011100020101010,
|
||||
0011100000202020,
|
||||
11110400,
|
||||
33330400,//84
|
||||
|
||||
#GOGOSTART
|
||||
1110100011102010,
|
||||
0020200011102010,
|
||||
0011101000100050,
|
||||
000000000000000000000000000000000008000000000000,
|
||||
33440404,
|
||||
0040004000000011,
|
||||
10002003,
|
||||
0300,
|
||||
30220201,
|
||||
01010100,
|
||||
1110202000202010,
|
||||
000000200000200000500000000000000008000000000000,
|
||||
3000103000111030,
|
||||
0011103000111010,
|
||||
11111113,
|
||||
03030300,
|
||||
22230443,//101
|
||||
|
||||
#GOGOEND
|
||||
,
|
||||
,
|
||||
#END
|
||||
|
||||
COURSE:Normal
|
||||
LEVEL:6
|
||||
BALLOON:6,8
|
||||
SCOREINIT:510
|
||||
SCOREDIFF:138
|
||||
|
||||
#START
|
||||
33000003,
|
||||
03000000,
|
||||
33000003,
|
||||
03040400,
|
||||
33000003,
|
||||
03000000,
|
||||
5,
|
||||
000000000000000000000008000000000000000000000000,//8
|
||||
|
||||
#GOGOSTART
|
||||
10110201,
|
||||
01010100,
|
||||
10110205,
|
||||
000000000000000000000000000008000000000000000000,
|
||||
30130113,
|
||||
01130111,
|
||||
10101113,
|
||||
03030300,//16
|
||||
|
||||
#GOGOEND
|
||||
10110011,
|
||||
0111,
|
||||
10110011,
|
||||
0111,
|
||||
10110111,
|
||||
01110000,
|
||||
10110105,
|
||||
000000000000000000000000000008000000000000000000,
|
||||
10110011,
|
||||
0222,
|
||||
10110011,
|
||||
0222,
|
||||
10110111,
|
||||
01110000,
|
||||
10110105,
|
||||
000000000000000000000000000008000000000000000000,
|
||||
10220201,
|
||||
0222,
|
||||
10220201,
|
||||
0222,
|
||||
10130113,
|
||||
01130111,
|
||||
20202025,
|
||||
000000000000000000000000000000000000000000000008,
|
||||
,
|
||||
,//42
|
||||
|
||||
#GOGOSTART
|
||||
10101111,
|
||||
00101111,
|
||||
00101115,
|
||||
000000000000000000000000000008000000000000000000,
|
||||
20202021,
|
||||
00202021,
|
||||
00202120,
|
||||
500000000000000000000000000008000000000000000000,
|
||||
10101111,
|
||||
00101111,
|
||||
00101115,
|
||||
000000000000000000000000000008000000000000000000,
|
||||
30440404,
|
||||
04040000,
|
||||
10002003,
|
||||
0300,//58
|
||||
|
||||
#GOGOEND
|
||||
11101111,
|
||||
0111,
|
||||
500000000000000000000000000008000000000000700000,
|
||||
00000800,
|
||||
22202220,
|
||||
22202220,
|
||||
9009,
|
||||
8,
|
||||
10110202,
|
||||
,
|
||||
10110202,
|
||||
,
|
||||
30130113,
|
||||
01130111,
|
||||
10101015,
|
||||
,
|
||||
000000000000000000000008000000000000000000000000,
|
||||
30000003,
|
||||
,
|
||||
30000003,
|
||||
00030000,
|
||||
10101011,
|
||||
00101011,
|
||||
00101110,
|
||||
500000000000000000000000000008000000000000000000,
|
||||
600000000000000000000000000008000000000000000000,//84
|
||||
|
||||
#GOGOSTART
|
||||
10101111,
|
||||
00101111,
|
||||
00101115,
|
||||
000000000000000000000000000008000000000000000000,
|
||||
30440404,
|
||||
04040000,
|
||||
10002003,
|
||||
0300,
|
||||
10110201,
|
||||
01010100,
|
||||
10110205,
|
||||
000000000000000000000000000008000000000000000000,
|
||||
30130113,
|
||||
01130111,
|
||||
10101113,
|
||||
03030300,
|
||||
22220333,//101
|
||||
|
||||
#GOGOEND
|
||||
,
|
||||
,
|
||||
#END
|
||||
|
||||
COURSE:Easy
|
||||
LEVEL:5
|
||||
BALLOON:6,7
|
||||
SCOREINIT:450
|
||||
SCOREDIFF:125
|
||||
|
||||
#START
|
||||
30000003,
|
||||
03000000,
|
||||
30000003,
|
||||
03000000,
|
||||
30000003,
|
||||
03000000,
|
||||
5,
|
||||
000000000000000000000008000000000000000000000000,//8
|
||||
|
||||
#GOGOSTART
|
||||
10100201,
|
||||
01010100,
|
||||
10100205,
|
||||
000000000000000000000000000008000000000000000000,
|
||||
30030003,
|
||||
00030000,
|
||||
10101003,
|
||||
03030300,//16
|
||||
|
||||
#GOGOEND
|
||||
10000001,
|
||||
0110,
|
||||
10000001,
|
||||
0110,
|
||||
10010001,
|
||||
01010000,
|
||||
10010105,
|
||||
000000000000000000000000000008000000000000000000,
|
||||
10010001,
|
||||
0220,
|
||||
10010001,
|
||||
0220,
|
||||
10010001,
|
||||
01010000,
|
||||
10010105,
|
||||
000000000000000000000000000008000000000000000000,
|
||||
10002001,
|
||||
0220,
|
||||
10002001,
|
||||
0220,
|
||||
30030003,
|
||||
00030000,
|
||||
20202005,
|
||||
000000000000000000000000000000000000000000000008,
|
||||
,
|
||||
,//42
|
||||
|
||||
#GOGOSTART
|
||||
10101001,
|
||||
0111,
|
||||
10101005,
|
||||
000000000000000000000000000008000000000000000000,
|
||||
20202002,
|
||||
0222,
|
||||
0222,
|
||||
500000000000000000000008000000000000000000000000,
|
||||
10101001,
|
||||
0111,
|
||||
10101005,
|
||||
000000000000000000000000000008000000000000000000,
|
||||
30040404,
|
||||
04040000,
|
||||
10002003,
|
||||
0300,//58
|
||||
|
||||
#GOGOEND
|
||||
10101001,
|
||||
0111,
|
||||
500000000000000000000000000008000000000000700000,
|
||||
00000800,
|
||||
2220,
|
||||
2220,
|
||||
9009,
|
||||
8,
|
||||
10000202,
|
||||
,
|
||||
10000202,
|
||||
,
|
||||
30030003,
|
||||
00030000,
|
||||
10101005,
|
||||
,
|
||||
000000000000000000000008000000000000000000000000,
|
||||
30000003,
|
||||
,
|
||||
30000003,
|
||||
00030000,
|
||||
10101001,
|
||||
0111,
|
||||
0111,
|
||||
500000000000000000000000000008000000000000000000,
|
||||
600000000000000000000000000008000000000000000000,//84
|
||||
|
||||
#GOGOSTART
|
||||
10101001,
|
||||
0222,
|
||||
10101005,
|
||||
000000000000000000000000000008000000000000000000,
|
||||
30040404,
|
||||
04040000,
|
||||
10002003,
|
||||
0300,
|
||||
10100201,
|
||||
01010100,
|
||||
10100205,
|
||||
000000000000000000000000000008000000000000000000,
|
||||
30030003,
|
||||
00030000,
|
||||
10101003,
|
||||
03030300,
|
||||
600000000000000000000000000000000000000008000000,//101
|
||||
|
||||
#GOGOEND
|
||||
,
|
||||
,
|
||||
#END
|
||||
Reference in New Issue
Block a user