tja
This commit is contained in:
336
tja/408.tja
Normal file
336
tja/408.tja
Normal file
@@ -0,0 +1,336 @@
|
||||
//TJADB Project
|
||||
TITLE:Highschool love!
|
||||
TITLEJA:Highschool love!
|
||||
SUBTITLE:--Go Shiina feat. Nami Nakagawa/TEKKEN TAG TOURNAMENT 2
|
||||
SUBTITLEJA:「鉄拳タッグトーナメント2 Wii U EDITION」より
|
||||
BPM:136.34
|
||||
WAVE:Highschool love!.ogg
|
||||
OFFSET:-1.823
|
||||
DEMOSTART:55.759
|
||||
|
||||
COURSE:Oni
|
||||
LEVEL:7
|
||||
SCOREINIT:740
|
||||
SCOREDIFF:210
|
||||
|
||||
|
||||
#START
|
||||
|
||||
|
||||
#SCROLL 1.01
|
||||
,
|
||||
#BPMCHANGE 139.7
|
||||
#SCROLL 0.99
|
||||
,
|
||||
#BPMCHANGE 136.94
|
||||
#SCROLL 1.01
|
||||
,
|
||||
2,
|
||||
#BPMCHANGE 138.27
|
||||
#SCROLL 1
|
||||
2,
|
||||
2,
|
||||
#BPMCHANGE 138.56
|
||||
4,
|
||||
#BPMCHANGE 138
|
||||
1020102010221020,
|
||||
1020102210201020,
|
||||
0020102010221020,
|
||||
1020102210201020,
|
||||
0020102010221022,
|
||||
1020102210201020,
|
||||
0020102010201022,
|
||||
1011201210211000,
|
||||
30032230,
|
||||
01212121,
|
||||
10211414,
|
||||
0010201022102210,
|
||||
30032230,
|
||||
01212121,
|
||||
10210414,
|
||||
0000200022102210,
|
||||
11210110,
|
||||
11210121,
|
||||
01210121,
|
||||
01210211,
|
||||
10012102,
|
||||
12012105,
|
||||
000000000000000000000008000000100000100000100000,
|
||||
1020200210202022,
|
||||
|
||||
#GOGOSTART
|
||||
1020102210201022,
|
||||
1020102210202210,
|
||||
1020102210201022,
|
||||
1010201022102210,
|
||||
1020102210201022,
|
||||
1020102210202210,
|
||||
1011204000222030,
|
||||
03030303,
|
||||
|
||||
#GOGOEND
|
||||
0000002200200022,
|
||||
0020002200200020,
|
||||
1010202222102210,
|
||||
3000200010102011,
|
||||
10012001,
|
||||
12012002,
|
||||
12012022,
|
||||
1020202210102022,
|
||||
|
||||
#GOGOSTART
|
||||
1020102211202010,
|
||||
1020102211202012,
|
||||
1010202211202012,
|
||||
1010202211202012,
|
||||
1020102211202011,
|
||||
1020102211202011,
|
||||
1020102211202010,
|
||||
40431116,
|
||||
000000000000000000000000000008000000400000000000,
|
||||
3003003030000000,
|
||||
|
||||
#GOGOEND
|
||||
|
||||
|
||||
#END
|
||||
|
||||
|
||||
COURSE:Hard
|
||||
LEVEL:6
|
||||
BALLOON:18,18
|
||||
SCOREINIT:790
|
||||
SCOREDIFF:230
|
||||
|
||||
|
||||
#START
|
||||
|
||||
|
||||
#BPMCHANGE 138
|
||||
,
|
||||
,
|
||||
,
|
||||
1,
|
||||
1,
|
||||
1,
|
||||
3,
|
||||
10121212,
|
||||
10110101,
|
||||
10121212,
|
||||
10110101,
|
||||
10121212,
|
||||
10110101,
|
||||
02020113,
|
||||
04040400,
|
||||
30012270,
|
||||
0008,
|
||||
10211211,
|
||||
01010110,
|
||||
30012270,
|
||||
0008,
|
||||
10210115,
|
||||
0000000000000000000000000000000000000000000000080000000000000000,
|
||||
11012101,
|
||||
10110121,
|
||||
01110111,
|
||||
01012121,
|
||||
01012102,
|
||||
12012105,
|
||||
0000000000000000000000000000000800000000100000001000000010000000,
|
||||
3334,//31
|
||||
|
||||
#GOGOSTART
|
||||
1011101010111010,
|
||||
0020200022202010,
|
||||
1011101010111010,
|
||||
0020200022202010,
|
||||
1011101010111010,
|
||||
0020200022202010,
|
||||
1011101010111030,
|
||||
03030303,//39
|
||||
|
||||
#GOGOEND
|
||||
0202,
|
||||
0202,
|
||||
00220022,
|
||||
02204040,
|
||||
10012010,
|
||||
10012120,
|
||||
10012003,
|
||||
03030404,//47
|
||||
|
||||
#GOGOSTART
|
||||
0011101110101010,
|
||||
0022202220202020,
|
||||
0011102220111022,
|
||||
2011102220202000,
|
||||
1000201110111010,
|
||||
0020201110111010,
|
||||
0020201110111010,
|
||||
40400006,
|
||||
0000000000000000000000000000000000000000000000080000000000000000,
|
||||
3003003030000000,//57
|
||||
|
||||
#GOGOEND
|
||||
|
||||
|
||||
#END
|
||||
|
||||
|
||||
COURSE:Normal
|
||||
LEVEL:4
|
||||
BALLOON:12,12
|
||||
|
||||
|
||||
#START
|
||||
|
||||
|
||||
#BPMCHANGE 138
|
||||
,
|
||||
,
|
||||
,
|
||||
1,
|
||||
1,
|
||||
1,
|
||||
3,
|
||||
10101011,
|
||||
10110101,
|
||||
00101011,
|
||||
10110101,
|
||||
00101011,
|
||||
10110101,
|
||||
01110113,
|
||||
03030300,
|
||||
30011170,
|
||||
0008,
|
||||
10201110,
|
||||
1110,
|
||||
30011170,
|
||||
0008,
|
||||
10111015,
|
||||
0000000000000000000000000000000000000008000000000000000000000000,
|
||||
1210,
|
||||
11101000,
|
||||
1210,
|
||||
11101000,
|
||||
10012000,
|
||||
10012005,
|
||||
00080111,
|
||||
6000000000000000000000000000000000000000000000080000000000000000,//31
|
||||
|
||||
#GOGOSTART
|
||||
10111011,
|
||||
10111020,
|
||||
11101110,
|
||||
11102020,
|
||||
10111011,
|
||||
10111020,
|
||||
11101116,
|
||||
0000000000000000000000000000000000000000000000000000000800000000,//39
|
||||
|
||||
#GOGOEND
|
||||
0202,
|
||||
0202,
|
||||
0202,
|
||||
4044,
|
||||
10012000,
|
||||
10012020,
|
||||
10012006,
|
||||
0000000000000000000000000000000000000000000000080000000000000000,//47
|
||||
|
||||
#GOGOSTART
|
||||
11101110,
|
||||
10201110,
|
||||
10201110,
|
||||
10201110,
|
||||
11101110,
|
||||
10201110,
|
||||
11101110,
|
||||
30300006,
|
||||
0000000000000000000000000000000000000000000000080000000000000000,
|
||||
30033000,
|
||||
|
||||
#GOGOEND
|
||||
|
||||
|
||||
#END
|
||||
|
||||
|
||||
COURSE:Easy
|
||||
LEVEL:3
|
||||
BALLOON:8,8
|
||||
|
||||
|
||||
#START
|
||||
|
||||
|
||||
#BPMCHANGE 138
|
||||
,
|
||||
,
|
||||
,
|
||||
1,
|
||||
1,
|
||||
1,
|
||||
3,
|
||||
1110,
|
||||
1110,
|
||||
12,
|
||||
1110,
|
||||
1110,
|
||||
1110,
|
||||
12,
|
||||
5000000000000000000000000000000000000008000000000000000000000000,
|
||||
30010070,
|
||||
0008,
|
||||
1110,
|
||||
1210,
|
||||
30010070,
|
||||
0008,
|
||||
10101005,
|
||||
0000000000000000000000000000000000000008000000000000000000000000,
|
||||
12,
|
||||
1110,
|
||||
12,
|
||||
1210,
|
||||
12,
|
||||
10101005,
|
||||
0000000000000000000000000000000000000008000000000000000000000000,
|
||||
6000000000000000000000000000000000000008000000000000000000000000,//31
|
||||
|
||||
#GOGOSTART
|
||||
1210,
|
||||
1210,
|
||||
1212,
|
||||
1120,
|
||||
1210,
|
||||
1210,
|
||||
10201006,
|
||||
0000000000000000000000000000000000000008000000000000000000000000,//39
|
||||
|
||||
#GOGOEND
|
||||
2,
|
||||
2,
|
||||
2,
|
||||
4044,
|
||||
12,
|
||||
12,
|
||||
10001006,
|
||||
0000000000000000000000000000000000000008000000000000000000000000,//47
|
||||
|
||||
#GOGOSTART
|
||||
1212,
|
||||
1011,
|
||||
11,
|
||||
1210,
|
||||
1120,
|
||||
1212,
|
||||
1120,
|
||||
30300006,
|
||||
0000000000000000000000000000000000000008000000000000000000000000,
|
||||
33,
|
||||
|
||||
#GOGOEND
|
||||
|
||||
|
||||
#END
|
||||
|
||||
Reference in New Issue
Block a user