tja
This commit is contained in:
649
tja/417.tja
Normal file
649
tja/417.tja
Normal file
@@ -0,0 +1,649 @@
|
||||
//TJADB Project
|
||||
TITLE:Grip & Break Down‼ -Tatsujin Edit-
|
||||
TITLEJA:Grip & Break down !! -達人Edit.-
|
||||
SUBTITLE:--SHU × GUCCI feat. Nana Takahashi/Touhou Project
|
||||
BPM:160
|
||||
WAVE:Grip and Break Down!! -Tatsujin Edit-.ogg
|
||||
OFFSET:-1.731
|
||||
DEMOSTART:51.410
|
||||
|
||||
COURSE:Edit
|
||||
LEVEL:9
|
||||
BALLOON:6
|
||||
SCOREINIT:400
|
||||
SCOREDIFF:90
|
||||
|
||||
|
||||
#START
|
||||
|
||||
|
||||
#BARLINEOFF
|
||||
#MEASURE 1/8
|
||||
1,
|
||||
#BARLINEON
|
||||
#MEASURE 4/4
|
||||
#BPMCHANGE 158.36
|
||||
#SCROLL 1.01
|
||||
3,
|
||||
#BPMCHANGE 159.63
|
||||
#SCROLL 1
|
||||
00000001,
|
||||
#BPMCHANGE 162.03
|
||||
#SCROLL 0.98
|
||||
3,
|
||||
#BPMCHANGE 160
|
||||
#SCROLL 1
|
||||
4004004070000080,
|
||||
#MEASURE 3/4
|
||||
200100100200100100200100100200100100,
|
||||
#MEASURE 2/4
|
||||
200200000200000000200200,
|
||||
#MEASURE 3/4
|
||||
200100100200100100200100100200100100,
|
||||
#MEASURE 2/4
|
||||
200000200200000200200000,
|
||||
#MEASURE 3/4
|
||||
200100100200100100200100100200100100,
|
||||
#MEASURE 2/4
|
||||
200200000200000000200200,
|
||||
#MEASURE 3/4
|
||||
200100100200100100200100100200100100,
|
||||
#MEASURE 2/4
|
||||
200000000400000000100100,
|
||||
#MEASURE 4/4
|
||||
100000000000300000000000100100200000000000200100,
|
||||
100000200200100100200000100000200000100000200000,
|
||||
100100100100200000000000200000200100000100100000,
|
||||
200100200100200100100100200100100100200100100100,
|
||||
100000000000300000000000100100200000000000200100,
|
||||
100000200200100100200000100000100000200000200000,
|
||||
200100100100200100100100200100200100200100000100,
|
||||
000000100100100000000000000000400000400000400000,
|
||||
100000100000200000200000100100100000200000200000,
|
||||
100000100000200000200000100100100000200000200000,
|
||||
100000100000200000200000100100100000200000300000,
|
||||
000000300000000000400000000000400000100100100100,
|
||||
100000200100100000100000200000100000200000100000,
|
||||
100000200100100000100000200000100000200000100000,
|
||||
100000200100100000100000200000100000200000300000,
|
||||
000000300000000000400000000000400000200200200200,
|
||||
100000200200000200200100100000200200000200200100,
|
||||
100000200200000200200000100100000100100000200200,
|
||||
100000200100000200200100100000200100000200200100,
|
||||
100000200200000200200000100100200100100100200100,
|
||||
100000200200000200200100100000200200000200200100,
|
||||
100000200200000200200000100100000100100000200000,
|
||||
300000200100000200200000300000200100000200200000,
|
||||
300000000000300000000000400000000000400000000000,
|
||||
|
||||
#GOGOSTART
|
||||
100100100000200000100100000100200000100000200100,
|
||||
100000200000100100200000100100000100200000100000,
|
||||
100100200100100000200000100100200100100000200000,
|
||||
100000200000100000200000300000000000300000000000,
|
||||
100100100000200000100100000100200000100000200100,
|
||||
100000200000100100200000100100000100200000100000,
|
||||
100100200100100000200000100200200200100000200000,
|
||||
100000200100000200100000100100100200100000000000,
|
||||
100100100000200000100100000100200000100000200100,
|
||||
100000200000100100200000100100000100200000100000,
|
||||
100100200100100000200000100100200100100000200000,
|
||||
100000200000100000200000300000000000300000000000,
|
||||
100100100000200000100100000100200000100000200100,
|
||||
100000200000100100200000100100000100200000100000,
|
||||
100100200100100000200000100200200200100000200000,
|
||||
500000000000000000000000000008000000000000000000,
|
||||
|
||||
#GOGOEND
|
||||
100000000000100000000000200000000000200000000000,
|
||||
100000000000100000000000200000000000200000000000,
|
||||
100000000000100000000000200000000000200000000000,
|
||||
100000000000100000000000400000000400000000400000,
|
||||
#SCROLL 1.25
|
||||
100100100100200200200200100100100100200200200200,
|
||||
#SCROLL 1.37
|
||||
100100200200100100200200100100200200100200100200,
|
||||
#SCROLL 1.5
|
||||
100100100100200200200200100100100100200200200200,
|
||||
#SCROLL 1.63
|
||||
100100200200100100200200100200200200100200100200,
|
||||
|
||||
#GOGOSTART
|
||||
#SCROLL 1
|
||||
100100100000200000100100000100200000100000200100,
|
||||
100000200000100100200000100100000200100000200000,
|
||||
100100200100100000200000100200100200100000200000,
|
||||
100000200000100000200000300000000000300000000000,
|
||||
100100100000200000100100000100200000100000200100,
|
||||
100000200000100100200000100100000200100000200000,
|
||||
100100200100100000200000100200200200100000200000,
|
||||
100000200100000200100000100100100200100000000000,
|
||||
100100100000200000100100000100200000100000200100,
|
||||
100000200000100100200000100100000200100000200000,
|
||||
100100200100100000200000100200100200100000200000,
|
||||
100000200000100000200000300000000000300000000000,
|
||||
100100100000200000100100000100200000100000200100,
|
||||
100000200000100100200000100100000200100000200000,
|
||||
100100200100100000200000100200200200100000200000,
|
||||
500000000000000000000000000008000000000000000000,
|
||||
|
||||
#GOGOEND
|
||||
300000000000300000000000100100200000000000200100,
|
||||
100000200200100100200000100000200000100000200000,
|
||||
100100100100200000000000200000200100000100100000,
|
||||
200100200100200100100100200100100100200100100100,
|
||||
100000000000300000000000100100200000000000200100,
|
||||
100000200200100100200000100000100000200000200000,
|
||||
200100100100200100100100200100200100200100000100,
|
||||
000000100100100000000000000000400000400000400000,
|
||||
|
||||
|
||||
|
||||
#END
|
||||
|
||||
|
||||
COURSE:Oni
|
||||
LEVEL:7
|
||||
SCOREINIT:500
|
||||
SCOREDIFF:130
|
||||
|
||||
|
||||
#START
|
||||
|
||||
|
||||
#BARLINEOFF
|
||||
#MEASURE 1/8
|
||||
1,
|
||||
#BARLINEON
|
||||
#MEASURE 4/4
|
||||
#BPMCHANGE 158.36
|
||||
#SCROLL 1.01
|
||||
3,
|
||||
#BPMCHANGE 159.63
|
||||
#SCROLL 1
|
||||
00000001,
|
||||
#BPMCHANGE 162.03
|
||||
#SCROLL 0.98
|
||||
3,
|
||||
#BPMCHANGE 160
|
||||
#SCROLL 1
|
||||
400000000400000000400000500000000000000008000000,
|
||||
#MEASURE 3/4
|
||||
101110101010,
|
||||
#MEASURE 2/4
|
||||
10111011,
|
||||
#MEASURE 3/4
|
||||
111111,
|
||||
#MEASURE 2/4
|
||||
10111011,
|
||||
#MEASURE 3/4
|
||||
101010101011,
|
||||
#MEASURE 2/4
|
||||
10111010,
|
||||
#MEASURE 3/4
|
||||
100000100000500000000000000008000000,
|
||||
#MEASURE 2/4
|
||||
40040011,
|
||||
#MEASURE 4/4
|
||||
1000300010200011,
|
||||
10110222,
|
||||
1111100020200000,
|
||||
500000000000000000000000000000000008000000000000,
|
||||
3000300010200011,
|
||||
10110222,
|
||||
500000000000000000000000000000000000000000000008,
|
||||
0011100000404040,
|
||||
11021102,
|
||||
11021102,
|
||||
11021104,
|
||||
04040400,
|
||||
0011101020102010,
|
||||
0011101020102010,
|
||||
0011101020102010,
|
||||
0040004000400011,
|
||||
1002001110020011,
|
||||
1002002010000011,
|
||||
1002001110020011,
|
||||
1002002011111010,
|
||||
1004001110040011,
|
||||
1004003030000020,
|
||||
3003002030030020,
|
||||
600000000000000000000008000000000000000000000000,
|
||||
|
||||
#GOGOSTART
|
||||
1010101000222010,
|
||||
0022202010002000,
|
||||
1022102010221020,
|
||||
12121020,
|
||||
1010101000222010,
|
||||
0022202010002000,
|
||||
1022102010222020,
|
||||
500000000000000000000000000008000000000000000000,
|
||||
1010101000222010,
|
||||
0022202010002000,
|
||||
1022102010221020,
|
||||
12121020,
|
||||
1010101000222010,
|
||||
0022202010002000,
|
||||
1022102010222020,
|
||||
500000000000000000000000000008000000000000000000,
|
||||
|
||||
#GOGOEND
|
||||
1122,
|
||||
1122,
|
||||
1122,
|
||||
1000100040040040,
|
||||
1110222011102220,
|
||||
1110222011102220,
|
||||
1110222011102220,
|
||||
3300,
|
||||
|
||||
#GOGOSTART
|
||||
1010202000222010,
|
||||
0022202010002000,
|
||||
1022102010221020,
|
||||
12121020,
|
||||
1010202000222010,
|
||||
0022202010002000,
|
||||
1022102010222020,
|
||||
500000000000000000000000000008000000000000000000,
|
||||
1010202000222010,
|
||||
0022202010002000,
|
||||
1022102010221020,
|
||||
12121020,
|
||||
1010202000222010,
|
||||
0022202010002000,
|
||||
1022102010222020,
|
||||
500000000000000000000000000008000000000000000000,
|
||||
|
||||
#GOGOEND
|
||||
3000300010200011,
|
||||
10110222,
|
||||
1111100020200000,
|
||||
500000000000000000000000000000000008000000000000,
|
||||
3000300010200011,
|
||||
10110222,
|
||||
500000000000000000000000000000000000000000000008,
|
||||
0011100000303030,
|
||||
|
||||
|
||||
#END
|
||||
|
||||
|
||||
COURSE:Hard
|
||||
LEVEL:6
|
||||
BALLOON:5
|
||||
SCOREINIT:540
|
||||
SCOREDIFF:140
|
||||
|
||||
|
||||
#START
|
||||
|
||||
|
||||
#MEASURE 1/8
|
||||
#BARLINEOFF
|
||||
1,
|
||||
#BARLINEON
|
||||
#BPMCHANGE 158.36
|
||||
#SCROLL 1.01
|
||||
#MEASURE 4/4
|
||||
3,
|
||||
#BPMCHANGE 159.63
|
||||
#SCROLL 1
|
||||
00000001,
|
||||
#BPMCHANGE 162.03
|
||||
#SCROLL 0.98
|
||||
3,
|
||||
#BPMCHANGE 160
|
||||
#SCROLL 1
|
||||
500000000000000000000000000000000008000000000000,
|
||||
#MEASURE 3/4
|
||||
101110101010,
|
||||
#MEASURE 2/4
|
||||
20001011,
|
||||
#MEASURE 3/4
|
||||
111120,
|
||||
#MEASURE 2/4
|
||||
10111010,
|
||||
#MEASURE 3/4
|
||||
101020001011,
|
||||
#MEASURE 2/4
|
||||
1111,
|
||||
#MEASURE 3/4
|
||||
200000000000500000000000000008000000,
|
||||
#MEASURE 2/4
|
||||
40040011,
|
||||
#MEASURE 4/4
|
||||
1000300000200011,
|
||||
10110222,
|
||||
1011100020200000,
|
||||
500000000000000000000000000000000008000000000000,
|
||||
3000300000200011,
|
||||
10110222,
|
||||
500000000000000000000000000000000000000000000008,
|
||||
0011100000404040,
|
||||
11001100,
|
||||
11001100,
|
||||
11001104,
|
||||
04040400,
|
||||
01101121,
|
||||
01101121,
|
||||
01101121,
|
||||
04040400,
|
||||
1001002020000000,
|
||||
1001002020000000,
|
||||
1001002020000000,
|
||||
1001002020000000,
|
||||
3003000030030000,
|
||||
3003002020000000,
|
||||
33,
|
||||
600000000000000000000000000008000000000000000000,//37
|
||||
|
||||
#GOGOSTART
|
||||
3000300000222010,
|
||||
01221020,
|
||||
1011102010111020,
|
||||
12121020,
|
||||
3000300000222010,
|
||||
01221020,
|
||||
1020102010222020,
|
||||
500000000000000000000000000008000000000000000000,
|
||||
3000300000222010,
|
||||
01221020,
|
||||
1011102010111020,
|
||||
12121020,
|
||||
3000300000222010,
|
||||
01221020,
|
||||
1020102010222020,
|
||||
500000000000000000000000000008000000000000000000,//53
|
||||
|
||||
#GOGOEND
|
||||
1122,
|
||||
1122,
|
||||
1122,
|
||||
1178,
|
||||
1110202011102020,
|
||||
1110202011102020,
|
||||
1110202011102020,
|
||||
3300,//61
|
||||
|
||||
#GOGOSTART
|
||||
3000300000222010,
|
||||
01221020,
|
||||
1011102010111020,
|
||||
12121020,
|
||||
3000300000222010,
|
||||
01221020,
|
||||
1020102010222020,
|
||||
500000000000000000000000000008000000000000000000,
|
||||
3000300000222010,
|
||||
01221020,
|
||||
1011102010111020,
|
||||
12121020,
|
||||
3000300000222010,
|
||||
01221020,
|
||||
1020102010222020,
|
||||
500000000000000000000000000008000000000000000000,//77
|
||||
|
||||
#GOGOEND
|
||||
3000300000200011,
|
||||
10110222,
|
||||
1011100020200000,
|
||||
500000000000000000000000000000000008000000000000,
|
||||
3000300000200011,
|
||||
10110222,
|
||||
500000000000000000000000000000000000000000000008,
|
||||
0011100000303030,
|
||||
,
|
||||
,
|
||||
#END
|
||||
|
||||
COURSE:Normal
|
||||
LEVEL:5
|
||||
BALLOON:5,3
|
||||
SCOREINIT:630
|
||||
SCOREDIFF:185
|
||||
|
||||
#START
|
||||
#MEASURE 1/8
|
||||
#BARLINEOFF
|
||||
3,
|
||||
#BARLINEON
|
||||
#BPMCHANGE 158.36
|
||||
#SCROLL 1.01
|
||||
#MEASURE 4/4
|
||||
3,
|
||||
#BPMCHANGE 159.63
|
||||
#SCROLL 1
|
||||
00000003,
|
||||
#BPMCHANGE 162.03
|
||||
#SCROLL 0.98
|
||||
3,
|
||||
#BPMCHANGE 160
|
||||
#SCROLL 1
|
||||
500000000000000000000000000008000000000000000000,
|
||||
#MEASURE 3/4
|
||||
111,
|
||||
#MEASURE 2/4
|
||||
11,
|
||||
#MEASURE 3/4
|
||||
212,
|
||||
#MEASURE 2/4
|
||||
11,
|
||||
#MEASURE 3/4
|
||||
111,
|
||||
#MEASURE 2/4
|
||||
21,
|
||||
#MEASURE 3/4
|
||||
270,
|
||||
#MEASURE 2/4
|
||||
8,
|
||||
#MEASURE 4/4
|
||||
30300200,
|
||||
10010220,
|
||||
10102200,
|
||||
500000000000000000000000000008000000000000000000,
|
||||
30300200,
|
||||
10010222,
|
||||
500000000000000000000000000000000000000000000008,
|
||||
,
|
||||
10001100,
|
||||
10001100,
|
||||
10001102,
|
||||
02020200,
|
||||
0111,
|
||||
0111,
|
||||
00101012,
|
||||
02020200,
|
||||
10022000,
|
||||
10022000,
|
||||
10022000,
|
||||
10022000,
|
||||
33,
|
||||
30022000,
|
||||
33,
|
||||
600000000000000000000008000000000000000000000000,//37
|
||||
|
||||
#GOGOSTART
|
||||
10100201,
|
||||
01102020,
|
||||
11101110,
|
||||
2220,
|
||||
10100201,
|
||||
01102020,
|
||||
11101110,
|
||||
500000000000000000000000000008000000000000000000,
|
||||
10100201,
|
||||
01102020,
|
||||
11101110,
|
||||
2220,
|
||||
10100201,
|
||||
01102020,
|
||||
11101110,
|
||||
500000000000000000000000000008000000000000000000,//53
|
||||
|
||||
#GOGOEND
|
||||
1122,
|
||||
1122,
|
||||
1122,
|
||||
1178,
|
||||
1212,
|
||||
1212,
|
||||
1212,
|
||||
3300,//61
|
||||
|
||||
#GOGOSTART
|
||||
11110201,
|
||||
01102020,
|
||||
11201120,
|
||||
2220,
|
||||
11110201,
|
||||
01102020,
|
||||
11201120,
|
||||
500000000000000000000000000008000000000000000000,
|
||||
11110201,
|
||||
01111020,
|
||||
11201120,
|
||||
2220,
|
||||
11110201,
|
||||
01111020,
|
||||
11201120,
|
||||
500000000000000000000000000008000000000000000000,//77
|
||||
|
||||
#GOGOEND
|
||||
30300200,
|
||||
10010220,
|
||||
10100220,
|
||||
500000000000000000000000000008000000000000000000,
|
||||
30300200,
|
||||
10010222,
|
||||
500000000000000000000000000000000000000000000008,
|
||||
00000333,
|
||||
,
|
||||
,
|
||||
#END
|
||||
|
||||
COURSE:Easy
|
||||
LEVEL:4
|
||||
BALLOON:3,2
|
||||
SCOREINIT:510
|
||||
SCOREDIFF:165
|
||||
|
||||
#START
|
||||
#MEASURE 1/8
|
||||
#BARLINEOFF
|
||||
,
|
||||
#BARLINEON
|
||||
#BPMCHANGE 158.36
|
||||
#SCROLL 1.01
|
||||
#MEASURE 4/4
|
||||
3,
|
||||
#BPMCHANGE 159.63
|
||||
#SCROLL 1
|
||||
,
|
||||
#BPMCHANGE 162.03
|
||||
#SCROLL 0.98
|
||||
3,
|
||||
#BPMCHANGE 160
|
||||
#SCROLL 1
|
||||
500000000000000000000000000008000000000000000000,
|
||||
#MEASURE 3/4
|
||||
111,
|
||||
#MEASURE 2/4
|
||||
1,
|
||||
#MEASURE 3/4
|
||||
220,
|
||||
#MEASURE 2/4
|
||||
11,
|
||||
#MEASURE 3/4
|
||||
110,
|
||||
#MEASURE 2/4
|
||||
22,
|
||||
#MEASURE 3/4
|
||||
070,
|
||||
#MEASURE 2/4
|
||||
8,
|
||||
#MEASURE 4/4
|
||||
3300,
|
||||
1011,
|
||||
11,
|
||||
500000000000000000000000000008000000000000000000,
|
||||
3300,
|
||||
1011,
|
||||
500000000000000000000000000000000000000000000008,
|
||||
,
|
||||
11,
|
||||
11,
|
||||
10001002,
|
||||
02020200,
|
||||
0111,
|
||||
0111,
|
||||
00101002,
|
||||
02020200,
|
||||
12,
|
||||
1120,
|
||||
12,
|
||||
1120,
|
||||
33,
|
||||
3330,
|
||||
44,
|
||||
600000000000000000000008000000000000000000000000,//37
|
||||
|
||||
#GOGOSTART
|
||||
11,
|
||||
1110,
|
||||
1110,
|
||||
2220,
|
||||
11,
|
||||
1110,
|
||||
1111,
|
||||
500000000000000000000000000008000000000000000000,
|
||||
11,
|
||||
1110,
|
||||
1110,
|
||||
2220,
|
||||
11,
|
||||
1110,
|
||||
1111,
|
||||
500000000000000000000000000008000000000000000000,//53
|
||||
|
||||
#GOGOEND
|
||||
1122,
|
||||
1122,
|
||||
1122,
|
||||
1178,
|
||||
1212,
|
||||
1212,
|
||||
1212,
|
||||
3300,//61
|
||||
|
||||
#GOGOSTART
|
||||
1110,
|
||||
1122,
|
||||
1110,
|
||||
2220,
|
||||
1110,
|
||||
1122,
|
||||
1212,
|
||||
500000000000000000000000000008000000000000000000,
|
||||
1110,
|
||||
1122,
|
||||
1110,
|
||||
2220,
|
||||
1110,
|
||||
1122,
|
||||
1212,
|
||||
500000000000000000000000000008000000000000000000,//77
|
||||
|
||||
#GOGOEND
|
||||
3300,
|
||||
1011,
|
||||
11,
|
||||
500000000000000000000000000008000000000000000000,
|
||||
3300,
|
||||
1011,
|
||||
500000000000000000000000000000000000000000000008,
|
||||
00000303,
|
||||
,
|
||||
,
|
||||
#END
|
||||
Reference in New Issue
Block a user