tja
This commit is contained in:
354
tja/420.tja
Normal file
354
tja/420.tja
Normal file
@@ -0,0 +1,354 @@
|
||||
//TJADB Project
|
||||
TITLE:Tsuki ni Murakumo Hana ni Kaze
|
||||
TITLEJA:月に叢雲華に風
|
||||
SUBTITLE:--Iceon (Yuuhei Satellite) feat. senya/Touhou Project
|
||||
SUBTITLEJA:東方Projectアレンジ 幽閉サテライト
|
||||
BPM:160
|
||||
WAVE:Tsuki ni Murakumo Hana ni Kaze.ogg
|
||||
OFFSET:-1.707
|
||||
DEMOSTART:62.402
|
||||
|
||||
COURSE:Oni
|
||||
LEVEL:8
|
||||
BALLOON:9,10
|
||||
SCOREINIT:800
|
||||
SCOREDIFF:180
|
||||
|
||||
|
||||
#START
|
||||
|
||||
|
||||
22,
|
||||
2002002000000000,
|
||||
22,
|
||||
2002002000002000,
|
||||
#BPMCHANGE 162.23
|
||||
20020202,
|
||||
#BPMCHANGE 160.68
|
||||
20200202,
|
||||
#BPMCHANGE 158.84
|
||||
4,
|
||||
#BPMCHANGE 160
|
||||
0004,
|
||||
1020102010221020,
|
||||
1020102010221020,
|
||||
1022102010221020,
|
||||
1120102010221120,
|
||||
1020102010221020,
|
||||
1120102010221120,
|
||||
1022201022201010,
|
||||
0010101022102210,
|
||||
#BPMCHANGE 159.24
|
||||
12,
|
||||
#BPMCHANGE 160
|
||||
20000021,
|
||||
10120210,
|
||||
10000011,
|
||||
20020010,
|
||||
#BPMCHANGE 159.34
|
||||
2221,
|
||||
#BPMCHANGE 160.95
|
||||
500000000000000000000000000000000000000008000000,
|
||||
#BPMCHANGE 160.48
|
||||
,
|
||||
#BPMCHANGE 160
|
||||
1110102011101020,
|
||||
1110102210201020,
|
||||
1120102210201000,
|
||||
1120112010001020,
|
||||
1010102011221020,
|
||||
1010102011221020,
|
||||
500000000000000000000000000000000000000000000008,
|
||||
,
|
||||
3002203002203030,
|
||||
04011212,
|
||||
3002203002203030,
|
||||
04011212,
|
||||
3002203002203030,
|
||||
04012112,
|
||||
1021021010210210,
|
||||
500000000000000000000000000000000000000000000008,
|
||||
0004,
|
||||
|
||||
#GOGOSTART
|
||||
1110102210201022,
|
||||
1021021010201020,
|
||||
1110102210201022,
|
||||
1021021010201020,
|
||||
1110102220101020,
|
||||
100000200000500000000008000000100000100000200000,
|
||||
70000803,
|
||||
|
||||
#GOGOEND
|
||||
01114400,
|
||||
|
||||
#GOGOSTART
|
||||
1110102210201022,
|
||||
1021021010201020,
|
||||
1110102211221022,
|
||||
1021021010201020,
|
||||
1110102222101022,
|
||||
100000200000500000000008000000100000100000200000,
|
||||
70000800,
|
||||
1020112220112222,
|
||||
|
||||
#GOGOEND
|
||||
12,
|
||||
2002002000000000,
|
||||
22,
|
||||
2002002000002000,
|
||||
20020202,
|
||||
20200202,
|
||||
#SCROLL 2
|
||||
500008000000000000000000000000000000000000000000,
|
||||
|
||||
|
||||
#END
|
||||
|
||||
|
||||
COURSE:Hard
|
||||
LEVEL:6
|
||||
BALLOON:6,8
|
||||
SCOREINIT:660
|
||||
SCOREDIFF:190
|
||||
|
||||
|
||||
#START
|
||||
|
||||
|
||||
22,
|
||||
2002002000000000,
|
||||
22,
|
||||
2002002000002000,
|
||||
20020202,
|
||||
20200202,
|
||||
4,
|
||||
0004,
|
||||
10121110,
|
||||
10121110,
|
||||
1020102010111000,
|
||||
1020102010111000,
|
||||
10121110,
|
||||
1000102010111000,
|
||||
30030033,
|
||||
01114343,
|
||||
32,
|
||||
2002,
|
||||
10120020,
|
||||
1001,
|
||||
20020010,
|
||||
2221,
|
||||
500000000000000000000000000000000000000008000000,
|
||||
,
|
||||
11101210,
|
||||
11101212,
|
||||
11101210,
|
||||
12121010,
|
||||
1020111010001000,
|
||||
1020111010001020,
|
||||
500000000000000000000000000000000000000000000008,
|
||||
,
|
||||
30030033,
|
||||
02030232,
|
||||
30030033,
|
||||
02030232,
|
||||
30030033,
|
||||
02010212,
|
||||
3003003040040040,
|
||||
500000000000000000000000000000000000000008000000,
|
||||
30030030,//41
|
||||
|
||||
#GOGOSTART
|
||||
1000102011101000,
|
||||
1001001010201000,
|
||||
1000102011101000,
|
||||
1001001010201000,
|
||||
1000102011101020,
|
||||
1000102011101020,
|
||||
70000803,//48
|
||||
|
||||
#GOGOEND
|
||||
03334400,//49
|
||||
|
||||
#GOGOSTART
|
||||
1000102011101000,
|
||||
1001001010201000,
|
||||
1000102011101000,
|
||||
1001001010201000,
|
||||
1000102011101020,
|
||||
1000102011101020,
|
||||
70000800,
|
||||
1010101022202220,//57
|
||||
|
||||
#GOGOEND
|
||||
12,
|
||||
2002002000000000,
|
||||
22,
|
||||
2002002000002000,
|
||||
20020202,
|
||||
20200202,
|
||||
#SCROLL 2
|
||||
500008000000000000000000000000000000000000000000,
|
||||
#SCROLL 1
|
||||
,
|
||||
#END
|
||||
|
||||
COURSE:Normal
|
||||
LEVEL:5
|
||||
BALLOON:5,8,8
|
||||
|
||||
#START
|
||||
22,
|
||||
20020000,
|
||||
22,
|
||||
20020000,
|
||||
20020000,
|
||||
2200,
|
||||
4,
|
||||
,
|
||||
10101110,
|
||||
10101110,
|
||||
10101110,
|
||||
20202220,
|
||||
10101110,
|
||||
10101110,
|
||||
500000000000000000000000000008000000000000700000,
|
||||
08,
|
||||
22,
|
||||
2,
|
||||
20020000,
|
||||
2,
|
||||
20020000,
|
||||
2220,
|
||||
9009,
|
||||
8,
|
||||
1110,
|
||||
1110,
|
||||
2220,
|
||||
1110,
|
||||
10111000,
|
||||
10111010,
|
||||
9009,
|
||||
8,
|
||||
30030033,
|
||||
0022,
|
||||
30030033,
|
||||
0022,
|
||||
30030033,
|
||||
0022,
|
||||
10011001,
|
||||
500000000000000000000000000000000000000000000008,
|
||||
,//41
|
||||
|
||||
#GOGOSTART
|
||||
10101110,
|
||||
1001001000000000,
|
||||
10101110,
|
||||
1001001000000000,
|
||||
10110010,
|
||||
1102,
|
||||
500000000000000000000000000008000000000000300000,//48
|
||||
|
||||
#GOGOEND
|
||||
0340,//49
|
||||
|
||||
#GOGOSTART
|
||||
10101110,
|
||||
1001001000000000,
|
||||
10101110,
|
||||
1001001000000000,
|
||||
10110010,
|
||||
2202,
|
||||
5,
|
||||
000000000000000000000000000008000000000000000000,//57
|
||||
|
||||
#GOGOEND
|
||||
22,
|
||||
20020000,
|
||||
22,
|
||||
20020020,
|
||||
20020000,
|
||||
2200,
|
||||
1,
|
||||
,
|
||||
#END
|
||||
|
||||
COURSE:Easy
|
||||
LEVEL:4
|
||||
BALLOON:6,5
|
||||
|
||||
#START
|
||||
2,
|
||||
20020000,
|
||||
2,
|
||||
20020000,
|
||||
20020000,
|
||||
2,
|
||||
4,
|
||||
,
|
||||
11,
|
||||
1110,
|
||||
22,
|
||||
500000000000000000000000000000000008000000000000,
|
||||
11,
|
||||
1110,
|
||||
20202007,
|
||||
08,
|
||||
2,
|
||||
2,
|
||||
22,
|
||||
2,
|
||||
2,
|
||||
22,
|
||||
9009,
|
||||
8,
|
||||
11,
|
||||
1110,
|
||||
22,
|
||||
2220,
|
||||
1110,
|
||||
2220,
|
||||
5,
|
||||
000000000000000000000008000000000000000000000000,
|
||||
30030050,
|
||||
000008000000000000000000400000000000000000000000,
|
||||
30030050,
|
||||
000008000000000000000000400000000000000000000000,
|
||||
30030050,
|
||||
000008000000000000000000400000000000000000000000,
|
||||
33,
|
||||
500000000000000000000000000000000000000000000008,
|
||||
,//41
|
||||
|
||||
#GOGOSTART
|
||||
1110,
|
||||
20020000,
|
||||
1110,
|
||||
20020000,
|
||||
1120,
|
||||
1120,
|
||||
500000000000000000000000000000000008000000000000,//48
|
||||
|
||||
#GOGOEND
|
||||
1130,//49
|
||||
|
||||
#GOGOSTART
|
||||
1110,
|
||||
20020000,
|
||||
1110,
|
||||
20020000,
|
||||
1120,
|
||||
1120,
|
||||
5,
|
||||
000000000000000000000000000008000000000000000000,//57
|
||||
|
||||
#GOGOEND
|
||||
2,
|
||||
20020000,
|
||||
2,
|
||||
20020000,
|
||||
2,
|
||||
2,
|
||||
1,
|
||||
,
|
||||
#END
|
||||
Reference in New Issue
Block a user