tja
This commit is contained in:
379
tja/423.tja
Normal file
379
tja/423.tja
Normal file
@@ -0,0 +1,379 @@
|
||||
//TJADB Project
|
||||
TITLE:Endless Seeker
|
||||
TITLEJA:Endless Seeker
|
||||
SUBTITLE:--A-One/Touhou Project
|
||||
SUBTITLEJA:東方Projectアレンジ A-One
|
||||
BPM:163
|
||||
WAVE:Endless Seeker.ogg
|
||||
OFFSET:-1.840
|
||||
DEMOSTART:62.192
|
||||
|
||||
COURSE:Oni
|
||||
LEVEL:8
|
||||
BALLOON:16,10,36
|
||||
SCOREINIT:410
|
||||
SCOREDIFF:100
|
||||
|
||||
|
||||
#START
|
||||
|
||||
|
||||
300000000300000000600000000000000008000000000000,
|
||||
300000000300000000600000000000000008000000000000,
|
||||
3003007000000000,
|
||||
08,
|
||||
300000000300000000600000000000000008000000000000,
|
||||
300000000300000000600000000000000008000000000000,
|
||||
#BPMCHANGE 163.46
|
||||
3003007000000000,
|
||||
#BPMCHANGE 163.16
|
||||
8000000010011011,
|
||||
#BPMCHANGE 163
|
||||
1000101101101022,
|
||||
1000101101101022,
|
||||
1000101101101022,
|
||||
1000101101120112,
|
||||
1000101101101022,
|
||||
1000101101101022,
|
||||
1000101101101011,
|
||||
1220122012201220,
|
||||
3000201110104000,
|
||||
1010210101012011,
|
||||
1010210101012210,
|
||||
1010210101012011,
|
||||
1010210122102211,
|
||||
1010210101012011,
|
||||
1010210101012210,
|
||||
1010210101012011,
|
||||
1010210030004000,
|
||||
1020102010221020,
|
||||
1020102210001020,
|
||||
1022102110221021,
|
||||
1022111030003000,
|
||||
2010201020112010,
|
||||
2010201120002010,
|
||||
2011201220112012,
|
||||
2011222020112011,
|
||||
1010211010102110,
|
||||
1010211010102111,
|
||||
1020112210221040,
|
||||
0040304040300011,
|
||||
1020122010201220,
|
||||
1020122010201222,
|
||||
1010221030304040,
|
||||
3344,//41
|
||||
|
||||
#GOGOSTART
|
||||
1010201120201110,
|
||||
0210201120201110,
|
||||
0211201120201110,
|
||||
4000400040004011,
|
||||
1010201120201110,
|
||||
0210201120201110,
|
||||
2012012011202220,
|
||||
1011201040004011,
|
||||
1010201120201110,
|
||||
0210201120201110,
|
||||
0211201120201110,
|
||||
4000400040004011,
|
||||
1010201120201110,
|
||||
0210201120201110,
|
||||
2012012011202220,
|
||||
1122112030004000,
|
||||
3003003022202020,
|
||||
3003003020112010,
|
||||
3003003022021022,
|
||||
1022102010221120,
|
||||
3003003022202220,
|
||||
3003003020112010,
|
||||
3003003022021020,
|
||||
1222122212221220,
|
||||
1000201110104000,//66
|
||||
|
||||
#GOGOEND
|
||||
1010210101012011,
|
||||
1010210101012210,
|
||||
1010210101012011,
|
||||
1010210122102211,
|
||||
1010210101012011,
|
||||
1010210101012210,
|
||||
1010210101012011,
|
||||
1010210030004000,
|
||||
7,
|
||||
,
|
||||
8,
|
||||
,
|
||||
,
|
||||
#END
|
||||
|
||||
COURSE:Hard
|
||||
LEVEL:6
|
||||
BALLOON:12,12,8,24
|
||||
SCOREINIT:470
|
||||
SCOREDIFF:120
|
||||
|
||||
#START
|
||||
300000000300000000600000000000000008000000000000,
|
||||
300000000300000000600000000000000008000000000000,
|
||||
3003007000000000,
|
||||
08,
|
||||
300000000300000000600000000000000008000000000000,
|
||||
300000000300000000600000000000000008000000000000,
|
||||
3003007000000000,
|
||||
08,
|
||||
1000100011101000,
|
||||
1000100011101000,
|
||||
1000100011101000,
|
||||
1000100011101110,
|
||||
1000100011101000,
|
||||
1000100011101000,
|
||||
1000100011101000,
|
||||
1000100011101110,
|
||||
7008,
|
||||
2020200202022000,
|
||||
1010100101011000,
|
||||
2020200202022000,
|
||||
11203040,
|
||||
2020200202022000,
|
||||
1010100101011000,
|
||||
2020200202022000,
|
||||
11203040,
|
||||
11221020,
|
||||
11221020,
|
||||
12121020,
|
||||
11103030,
|
||||
22112010,
|
||||
22112010,
|
||||
21212010,
|
||||
20220000,
|
||||
1000101000002220,
|
||||
1000101000002220,
|
||||
10220204,
|
||||
0040402220200000,
|
||||
2000101000001110,
|
||||
20110225,
|
||||
000000000008000000000000100100100000200000200000,
|
||||
3334,//41
|
||||
|
||||
#GOGOSTART
|
||||
1010101110100040,
|
||||
0022202020200030,
|
||||
0011101010100000,
|
||||
3434,
|
||||
1010101110100040,
|
||||
0022202020200000,
|
||||
3003003000303060,
|
||||
000000000008000000000000400000000000400000000000,
|
||||
1010101110100040,
|
||||
0022202020200030,
|
||||
0011101010100000,
|
||||
3434,
|
||||
1010101110100040,
|
||||
0022202020200000,
|
||||
3003003000303060,
|
||||
000000000008000000000000400000000000400000000000,
|
||||
300000000300000000600000000000000008000000000000,
|
||||
300000000300000000600000000000000008000000000000,
|
||||
300000000300000000600000000000000008000000000000,
|
||||
1010200011102000,
|
||||
100000100100100000600000000000000008000000000000,
|
||||
100000100100100000600000000000000008000000000000,
|
||||
100000100100100000600000000000000008000000000000,
|
||||
2020111020201110,
|
||||
3,//66
|
||||
|
||||
#GOGOEND
|
||||
2020200202022000,
|
||||
1010100101011000,
|
||||
2020200202022000,
|
||||
11203040,
|
||||
2020200202022000,
|
||||
1010100101011000,
|
||||
2020200202022000,
|
||||
11203040,
|
||||
7,
|
||||
,
|
||||
8,
|
||||
,
|
||||
,
|
||||
#END
|
||||
|
||||
COURSE:Normal
|
||||
LEVEL:5
|
||||
BALLOON:10,10,16
|
||||
|
||||
#START
|
||||
300000000000000000600000000000000008000000000000,
|
||||
300000000000000000600000000000000008000000000000,
|
||||
30070000,
|
||||
08,
|
||||
300000000000000000600000000000000008000000000000,
|
||||
300000000000000000600000000000000008000000000000,
|
||||
30070000,
|
||||
08,
|
||||
11,
|
||||
10101011,
|
||||
11,
|
||||
10101111,
|
||||
11,
|
||||
10101011,
|
||||
11,
|
||||
10101111,
|
||||
1,
|
||||
22202020,
|
||||
11101010,
|
||||
22202020,
|
||||
11104040,
|
||||
22202020,
|
||||
11101010,
|
||||
22202020,
|
||||
11104040,
|
||||
1110,
|
||||
1110,
|
||||
22201110,
|
||||
22203030,
|
||||
2220,
|
||||
2220,
|
||||
11102220,
|
||||
11110000,
|
||||
11101010,
|
||||
11101010,
|
||||
1212,
|
||||
11102220,
|
||||
22202020,
|
||||
22202020,
|
||||
10203333,
|
||||
0034,//41
|
||||
|
||||
#GOGOSTART
|
||||
11102203,
|
||||
01102203,
|
||||
01102200,
|
||||
3333,
|
||||
11102203,
|
||||
01102200,
|
||||
5,
|
||||
000000000008000000000000400000000000400000000000,
|
||||
11102203,
|
||||
01102203,
|
||||
01102200,
|
||||
3333,
|
||||
11102203,
|
||||
01102200,
|
||||
5,
|
||||
000000000008000000000000400000000000400000000000,
|
||||
300000000000000000600000000000000008000000000000,
|
||||
300000000000000000600000000000000008000000000000,
|
||||
300000000000000000600000000000000008000000000000,
|
||||
1122,
|
||||
300000000000000000600000000000000008000000000000,
|
||||
300000000000000000600000000000000008000000000000,
|
||||
300000000000000000600000000000000008000000000000,
|
||||
1122,
|
||||
3,//66
|
||||
|
||||
#GOGOEND
|
||||
22202020,
|
||||
11101010,
|
||||
22202020,
|
||||
11104040,
|
||||
22202020,
|
||||
11101010,
|
||||
22202020,
|
||||
11104040,
|
||||
9,
|
||||
09,
|
||||
8,
|
||||
,
|
||||
,
|
||||
#END
|
||||
|
||||
COURSE:Easy
|
||||
LEVEL:3
|
||||
BALLOON:6,6,5,10
|
||||
|
||||
#START
|
||||
300000000000000000600000000000000008000000000000,
|
||||
300000000000000000600000000000000008000000000000,
|
||||
30070000,
|
||||
08,
|
||||
300000000000000000600000000000000008000000000000,
|
||||
300000000000000000600000000000000008000000000000,
|
||||
30070000,
|
||||
08,
|
||||
11,
|
||||
1033,
|
||||
31,
|
||||
1033,
|
||||
31,
|
||||
1033,
|
||||
31,
|
||||
1033,
|
||||
3,
|
||||
1101,
|
||||
11,
|
||||
1101,
|
||||
1044,
|
||||
1101,
|
||||
11,
|
||||
1101,
|
||||
1044,
|
||||
1110,
|
||||
1110,
|
||||
11,
|
||||
1033,
|
||||
2220,
|
||||
2220,
|
||||
22,
|
||||
2044,
|
||||
1101,
|
||||
1100,
|
||||
3330,
|
||||
3330,
|
||||
2202,
|
||||
2202,
|
||||
5008,
|
||||
3330,//41
|
||||
|
||||
#GOGOSTART
|
||||
1120,
|
||||
1120,
|
||||
1120,
|
||||
3333,
|
||||
1120,
|
||||
1120,
|
||||
5,
|
||||
0844,
|
||||
1120,
|
||||
1120,
|
||||
1120,
|
||||
3333,
|
||||
1120,
|
||||
1120,
|
||||
5,
|
||||
0844,
|
||||
300000000000000000600000000000000008000000000000,
|
||||
300000000000000000600000000000000008000000000000,
|
||||
300000000000000000600000000000000008000000000000,
|
||||
3333,
|
||||
300000000000000000600000000000000008000000000000,
|
||||
300000000000000000600000000000000008000000000000,
|
||||
300000000000000000600000000000000008000000000000,
|
||||
9009,
|
||||
8,//66
|
||||
|
||||
#GOGOEND
|
||||
1101,
|
||||
11,
|
||||
1101,
|
||||
1044,
|
||||
1101,
|
||||
11,
|
||||
1101,
|
||||
1044,
|
||||
9,
|
||||
09,
|
||||
8,
|
||||
,
|
||||
,
|
||||
#END
|
||||
Reference in New Issue
Block a user