This commit is contained in:
2026-03-04 23:59:27 +09:00
parent 6e0312f5b4
commit 4b4e2b8c98
1128 changed files with 668765 additions and 0 deletions

526
tja/424.tja Normal file
View File

@@ -0,0 +1,526 @@
//TJADB Project
TITLE:Tokyo Soda -8-bit Edit-
TITLEJA:東京ソーダ 8Bit Edit
SUBTITLE:--Hige DriVAN
SUBTITLEJA:ヒゲドライVAN
BPM:175
WAVE:Tokyo Soda -8-bit Edit-.ogg
OFFSET:-1.719
DEMOSTART:57.597
COURSE:Oni
LEVEL:8
BALLOON:28
SCOREINIT:410
SCOREDIFF:105
#START
#MEASURE 3/4
002220101010,
#MEASURE 4/4
32,
300000000000000000100100200000002000000010000000,
32,
1110201112102000,
1110200011102000,
1120200011202000,
1210221012102210,
2010201012221222,
11121121,
1020101022101020,
11121121,
1022101022101020,
11121121,
#BPMCHANGE 175.32
#SCROLL 0.99
1020101022101020,
#BPMCHANGE 173.9
#SCROLL 1
11121212,
#BPMCHANGE 175.79
#SCROLL 0.99
1010200220202020,
#BPMCHANGE 175
#SCROLL 1
1000001020200022,
2010200010102022,
1000001020200022,
2010222010102022,
10010000,
0010221020101022,
1000001000001220,
0010121010102222,
1000001020200022,
2010200010102022,
1000001020200022,
2010222011102022,
10010000,
0010221020101022,
1000001000001220,
1010220220101010,
#BPMCHANGE 175.22
#SCROLL 0.99
1000112000100022,
2010200010121000,
1000112000100022,
#BPMCHANGE 174.35
#SCROLL 1
2010200020221000,
#BPMCHANGE 175
1110201110102011,
1010201110102011,
1110201111102011,
2010201022122222,
#GOGOSTART
1110202211102000,
1110201211102000,
1110201122102000,
1110201112102000,
1110200011102000,
1120200011202000,
1220201112202010,
2010201012221222,
1110202211102000,
1110201211102000,
1110201122102000,
1110201112102000,
1110202212102000,
1110201212202012,
1110201222102010,
100100100000200000000000200020002000100010001000,
#GOGOEND
#BPMCHANGE 174.58
1000000020001022,
#BPMCHANGE 172.99
#SCROLL 1.01
1000100020001120,
#BPMCHANGE 177.2
#SCROLL 0.98
1000000020221020,
#BPMCHANGE 175.07
#SCROLL 0.99
1000100022101020,
1000001120001020,
#BPMCHANGE 175.93
1000111020001020,
#BPMCHANGE 174.61
#SCROLL 1
1022200020001020,
1120100020001002,
#BPMCHANGE 175.23
#SCROLL 0.99
12,
1120,
1120,
#BPMCHANGE 174.83
#SCROLL 1
1120,
7,
,
8,
#GOGOSTART
#BPMCHANGE 175
1110202211102000,
1110201211102000,
1110201122102000,
1110201112102000,
1110200011102000,
1120200011202000,
1220202212202020,
2212221212221222,
1110200011102000,
1120200011202000,
1220200012202000,
1210221012102210,
1120200011202000,
1111111111112211,
1110201122102000,
1110201112102000,
1110200011102000,
#BPMCHANGE 175.74
#SCROLL 0.99
1120200011202000,
#BPMCHANGE 174.86
#SCROLL 1
1220200012202000,
#BPMCHANGE 174.84
1111111220101010,
#GOGOEND
#BPMCHANGE 175
3,
,
00000202,
#END
COURSE:Hard
LEVEL:7
BALLOON:20,20,10
#START
#MEASURE 3/4
002220101010,
#MEASURE 4/4
32,
300000000000000000200200200000001000000010000000,
32,
1110201010002000,
1110200010202000,
1020100020201110,
1000222020001110,
2000200020002220,
2010200011102000,
1020111020001000,
1020100022201000,
2010222010002000,
2010200011102000,
1020111020001000,
2011102010200020,
1010200220202020,
1000001020200022,
2010200020200011,
1000001020200022,
2010200010002011,
10010000,
0010200010102220,
1000001000002220,
0010222200102000,
1000001020200022,
2010200020200011,
1000001020200022,
2010200010002011,
10010000,
0010200010102220,
1000001000002220,
1010220220101010,
10120102,
0010200010111000,
10120102,
#BPMCHANGE 175.5
0010200020222000,
#BPMCHANGE 175
1000200010111000,
1000100010111000,
1110200011102000,
2000200022202020,//41
#GOGOSTART
1110201010002000,
1110202010002000,
1110201010002000,
1110202010002000,
1110200011102000,
2220200010002220,
1000222010002220,
2000200011101010,
1110201010002000,
1110202010002000,
1110201010002000,
1110202010002000,
1110200020201110,
1000222020001110,
7,
,//57
#GOGOEND
82,
3320,
32,
3320,
600000000000000000000008000000000000000000000000,
3320,
600000000000000000000008000000000000000000000000,
3000200020001001,
#BPMCHANGE 173.87
12,
#BPMCHANGE 175.2
1120,
#BPMCHANGE 175.25
1120,
#BPMCHANGE 175.13
1120,
#BPMCHANGE 175
7,
,
8,//72
#GOGOSTART
1110201010002000,
1110202010002000,
1110201010002000,
1110202010002000,
1110200011102000,
2220200010002220,
1000222010002220,
2000200011101010,
1000222010002000,
1110202010002000,
1000222010102000,
1110200011102000,
2220200010002220,
7,
80001120,
10201120,
1110201010002000,
1110202010002000,
10201120,
1010200220101010,//92
#GOGOEND
3,
,
00000202,
,
,
#END
COURSE:Normal
LEVEL:5
BALLOON:16,16
#START
#MEASURE 3/4
,
#MEASURE 4/4
32,
32,
32,
10011020,
1212,
1102,
1202,
2222,
10102220,
10102220,
10201110,
10201110,
10102220,
10201110,
10102220,
11202220,
00001101,
00001101,
00001101,
0212,
1,
00000011,
,
00220000,
00002202,
00002202,
00002202,
0121,
1,
00000022,
0002,
11202010,
10110110,
0220,
10110101,
#BPMCHANGE 175.5
0220,
#BPMCHANGE 175
10110101,
0111,
1212,
500000000000000000000000000000000008000000000000,//41
#GOGOSTART
10011020,
10011020,
10011020,
10022010,
1212,
1102,
1101,
500000000000000000000000000000000008000000000000,
10011020,
10011020,
10011020,
10022010,
500000000000000000000000000000000008000000000000,
10011020,
10011020,
11102220,//57
#GOGOEND
1,
1100,
1,
1100,
1,
1100,
1,
1210,
#BPMCHANGE 173.87
12,
#BPMCHANGE 175.2
1120,
#BPMCHANGE 175.25
12,
#BPMCHANGE 175.13
1120,
#BPMCHANGE 175
7,
,
8,//72
#GOGOSTART
10011020,
10011020,
10011020,
10022010,
1212,
1102,
1101,
500000000000000000000000000000000008000000000000,
0111,
22,
0111,
1212,
1101,
500000000000000000000000000000000008000000000000,
10011020,
10011020,
10011020,
10022010,
7,
,//92
#GOGOEND
8,
,
,
,
,
#END
COURSE:Easy
LEVEL:4
BALLOON:12,12
#START
#MEASURE 3/4
,
#MEASURE 4/4
33,
33,
33,
34,
11,
1100,
1102,
2220,
12,
1110,
12,
1110,
12,
2220,
12,
2222,
00001001,
00001001,
00001001,
0220,
10010000,
0002,
0002,
0222,
00001001,
00001001,
00001001,
0222,
2,
0001,
10010020,
2220,
10010001,
0110,
20020002,
#BPMCHANGE 175.5
0220,
#BPMCHANGE 175
1110,
1110,
12,
500000000000000000000008000000000000000000000000,//41
#GOGOSTART
11,
12,
11,
22,
1111,
1101,
1105,
000000000000000000000008000000000000000000000000,
11,
12,
11,
2022,
2,
500000000000000000000008000000000000000000000000,
1,
2220,//57
#GOGOEND
1,
1100,
1,
1100,
1,
1100,
1,
1110,
#BPMCHANGE 173.87
12,
#BPMCHANGE 175.2
1110,
#BPMCHANGE 175.25
12,
#BPMCHANGE 175.13
1110,
#BPMCHANGE 175
7,
,
8,//72
#GOGOSTART
11,
12,
11,
22,
1111,
1102,
0202,
2220,
0111,
12,
0111,
12,
1100,
500000000000000000000008000000000000000000000000,
11,
12,
11,
22,
7,
,//92
#GOGOEND
8,
,
,
,
,
#END