tja
This commit is contained in:
526
tja/427.tja
Normal file
526
tja/427.tja
Normal file
@@ -0,0 +1,526 @@
|
||||
//TJADB Project
|
||||
TITLE:God Ray
|
||||
TITLEJA:God Ray
|
||||
SUBTITLE:--kyo feat. Miki Tsuchiya/Synchronica
|
||||
SUBTITLEJA:kyo(BNSI) 「シンクロニカ」より
|
||||
BPM:74
|
||||
WAVE:God Ray.ogg
|
||||
OFFSET:-3.423
|
||||
DEMOSTART:85.380
|
||||
|
||||
//Shinuchi: 4990/3320/2050/1170
|
||||
|
||||
COURSE:Oni
|
||||
LEVEL:10
|
||||
BALLOON:36,4,4,4,14
|
||||
SCOREINIT:460,1280
|
||||
SCOREDIFF:108
|
||||
|
||||
#START
|
||||
#BARLINEOFF
|
||||
0,
|
||||
#BARLINEON
|
||||
11,
|
||||
70000008, //3
|
||||
|
||||
#BPMCHANGE 172
|
||||
33221122,
|
||||
11221221,
|
||||
33221122,
|
||||
12121222,
|
||||
|
||||
3030222030302220,
|
||||
3030222030302211,
|
||||
1010221210102211,
|
||||
1210121012112210, //11
|
||||
|
||||
1000201110102010,
|
||||
1020102210102011,
|
||||
1000201110102010,
|
||||
1110201012222000,
|
||||
|
||||
1111221111112211,
|
||||
101010200200101010200200100200200200100200200200,
|
||||
100122100100222100100122,
|
||||
100000100000202020100000200200100200202020100000, //19
|
||||
|
||||
3000111120201111,
|
||||
22303040,
|
||||
3000111120201111,
|
||||
22303040,
|
||||
|
||||
1020201020201022,
|
||||
2010222010111222,
|
||||
1020201020201022,
|
||||
2010222012221111, //27
|
||||
|
||||
1022201022201122,
|
||||
2011222011211222,
|
||||
101010200200200000101010200200200000101010200200,
|
||||
200000100000200200100000100200200100200200101010,
|
||||
|
||||
12,
|
||||
2022,
|
||||
111122221221,
|
||||
111122221221, //35
|
||||
|
||||
70087008,
|
||||
500008000000600008000000700000000000000000800000,
|
||||
222211211211,
|
||||
222211211211,
|
||||
111010102020202010202010,
|
||||
#MEASURE 8/4
|
||||
111010102020202010202010000000000000000000000000, //41
|
||||
|
||||
#MEASURE 3/4
|
||||
#GOGOSTART
|
||||
303022222010,
|
||||
303022221010,
|
||||
303022212010,
|
||||
300111200111200200,
|
||||
|
||||
303022122010,
|
||||
303021222010,
|
||||
303012222010,
|
||||
300000101010200000101010200200200200, //49
|
||||
|
||||
111122212211,
|
||||
111122212211,
|
||||
111122212210,
|
||||
300000101010200000101010200200200200,
|
||||
|
||||
112222112211,
|
||||
112222112211,
|
||||
112121112122,
|
||||
#GOGOEND
|
||||
102010221022,
|
||||
102211211122, //58
|
||||
|
||||
#MEASURE 4/4
|
||||
#GOGOSTART
|
||||
1000201110102010,
|
||||
1120102210102211,
|
||||
1010201212102011,
|
||||
1211201012222000,
|
||||
|
||||
1111221111112211,
|
||||
101010200200101010200200100200200200100200200200,
|
||||
100122100100222100100122,
|
||||
100000100000202020100000200200100200202020100000, //66
|
||||
#GOGOEND
|
||||
|
||||
3000111220201112,
|
||||
22303040,
|
||||
3000111220201112,
|
||||
22303040,
|
||||
|
||||
1111221121211111,
|
||||
200100200000300000101010200000101010200000000000,
|
||||
1111221121211111,
|
||||
200100200000300000101020200000101020200000000000, //74
|
||||
|
||||
#MEASURE 3/4
|
||||
#SCROLL 1.5
|
||||
221122112211,
|
||||
#SCROLL 2
|
||||
212121212121,
|
||||
#MEASURE 4/4
|
||||
#SCROLL 3
|
||||
700000000000000000000000000000000000080000000000,
|
||||
#SCROLL 4
|
||||
500000000000000000000000000000000008000000000000,
|
||||
|
||||
#BARLINEOFF
|
||||
#SCROLL 1
|
||||
0,
|
||||
0,
|
||||
0,
|
||||
0, //82
|
||||
#END
|
||||
|
||||
|
||||
COURSE:Hard
|
||||
LEVEL:7
|
||||
BALLOON:30,3,3,3,10
|
||||
SCOREINIT:570,2410
|
||||
SCOREDIFF:148
|
||||
|
||||
#START
|
||||
#BARLINEOFF
|
||||
0,
|
||||
#BARLINEON
|
||||
11,
|
||||
70000008, //3
|
||||
|
||||
#BPMCHANGE 172
|
||||
33001100,
|
||||
11001101,
|
||||
33001100,
|
||||
12121220,
|
||||
|
||||
33023302,
|
||||
33023302,
|
||||
34023402,
|
||||
12121220, //11
|
||||
|
||||
10212020,
|
||||
10212120,
|
||||
2121,
|
||||
2000200020222000,
|
||||
|
||||
11221122,
|
||||
10101110,
|
||||
10210210,
|
||||
21021110, //19
|
||||
|
||||
3000111020201110,
|
||||
22303040,
|
||||
3000111020201110,
|
||||
22303040,
|
||||
|
||||
10210210,
|
||||
2010002010002220,
|
||||
10210210,
|
||||
2010002010002220, //27
|
||||
|
||||
10210210,
|
||||
2010002010002220,
|
||||
12210210,
|
||||
2010002010002220,
|
||||
|
||||
3,
|
||||
0,
|
||||
111100111100,
|
||||
222200222200, //35
|
||||
|
||||
70087008,
|
||||
500008000000600008000000700000000000000000800000,
|
||||
222200222200,
|
||||
111100111100,
|
||||
112200112200,
|
||||
#MEASURE 8/4
|
||||
222200222200000000000000, //41
|
||||
|
||||
#MEASURE 3/4
|
||||
#GOGOSTART
|
||||
300011101000,
|
||||
300011101000,
|
||||
300011101000,
|
||||
334,
|
||||
|
||||
400022202000,
|
||||
400022202000,
|
||||
400022202000,
|
||||
443, //49
|
||||
|
||||
101011101000,
|
||||
202022202000,
|
||||
101011101000,
|
||||
334,
|
||||
|
||||
202011101000,
|
||||
202011101000,
|
||||
202011101000,
|
||||
#GOGOEND
|
||||
111,
|
||||
100011101110, //58
|
||||
|
||||
#MEASURE 4/4
|
||||
#GOGOSTART
|
||||
10212020,
|
||||
10212120,
|
||||
2121,
|
||||
2220,
|
||||
|
||||
11221122,
|
||||
12121220,
|
||||
10210210,
|
||||
21021110, //66
|
||||
#GOGOEND
|
||||
|
||||
3000111020201110,
|
||||
22303040,
|
||||
3000111020201110,
|
||||
22303040,
|
||||
|
||||
1110111020201110,
|
||||
22304040,
|
||||
1110111020201110,
|
||||
22304040, //74
|
||||
|
||||
#MEASURE 3/4
|
||||
#SCROLL 1.5
|
||||
222,
|
||||
#SCROLL 2
|
||||
444,
|
||||
#MEASURE 4/4
|
||||
#SCROLL 3
|
||||
700000000000000000000000000000000000080000000000,
|
||||
#SCROLL 4
|
||||
500000000000000000000000000000000008000000000000,
|
||||
|
||||
#BARLINEOFF
|
||||
#SCROLL 1
|
||||
0,
|
||||
0,
|
||||
0,
|
||||
0, //82
|
||||
#END
|
||||
|
||||
|
||||
COURSE:Normal
|
||||
LEVEL:6
|
||||
BALLOON:20,6
|
||||
SCOREINIT:690,4090
|
||||
SCOREDIFF:213
|
||||
|
||||
#START
|
||||
#BARLINEOFF
|
||||
0,
|
||||
#BARLINEON
|
||||
11,
|
||||
70000008, //3
|
||||
|
||||
#BPMCHANGE 172
|
||||
33001100,
|
||||
11001100,
|
||||
33001100,
|
||||
12020220,
|
||||
|
||||
33003300,
|
||||
33003300,
|
||||
34003400,
|
||||
12020220, //11
|
||||
|
||||
1022,
|
||||
1022,
|
||||
2121,
|
||||
2120,
|
||||
|
||||
11,
|
||||
10102220,
|
||||
1110,
|
||||
1110, //19
|
||||
|
||||
30002200,
|
||||
22303000,
|
||||
30002200,
|
||||
22303000,
|
||||
|
||||
10010010,
|
||||
01001020,
|
||||
10010010,
|
||||
01001020, //27
|
||||
|
||||
10010010,
|
||||
01001020,
|
||||
10210210,
|
||||
21021020,
|
||||
|
||||
3,
|
||||
0,
|
||||
1,
|
||||
11, //35
|
||||
|
||||
22,
|
||||
2,
|
||||
11,
|
||||
5,
|
||||
0,
|
||||
#MEASURE 8/4
|
||||
000000000000000000000000000000000000000000000008000000000000000000000000000000000000000000000000, //41
|
||||
|
||||
#MEASURE 3/4
|
||||
#GOGOSTART
|
||||
311,
|
||||
422,
|
||||
311,
|
||||
330,
|
||||
|
||||
311,
|
||||
422,
|
||||
311,
|
||||
440, //49
|
||||
|
||||
111010,
|
||||
222020,
|
||||
111010,
|
||||
334,
|
||||
|
||||
111110,
|
||||
222220,
|
||||
111110,
|
||||
#GOGOEND
|
||||
111,
|
||||
101111, //58
|
||||
|
||||
#MEASURE 4/4
|
||||
#GOGOSTART
|
||||
1022,
|
||||
10102220,
|
||||
2121,
|
||||
200000000000100000000000500000000008000000000000,
|
||||
|
||||
1212,
|
||||
11101110,
|
||||
10101110,
|
||||
1110, //66
|
||||
#GOGOEND
|
||||
|
||||
30002200,
|
||||
22303000,
|
||||
30002200,
|
||||
22303000,
|
||||
|
||||
30112011,
|
||||
2440,
|
||||
30112011,
|
||||
2440, //74
|
||||
|
||||
#MEASURE 3/4
|
||||
#SCROLL 1.25
|
||||
222,
|
||||
#SCROLL 1.5
|
||||
444,
|
||||
#MEASURE 4/4
|
||||
#SCROLL 2
|
||||
700000000000000000000000000000000000080000000000,
|
||||
#SCROLL 3
|
||||
500000000000000000000000000000000008000000000000,
|
||||
|
||||
#BARLINEOFF
|
||||
#SCROLL 1
|
||||
0,
|
||||
0,
|
||||
0,
|
||||
0, //82
|
||||
#END
|
||||
|
||||
|
||||
COURSE:Easy
|
||||
LEVEL:5
|
||||
BALLOON:10,4
|
||||
SCOREINIT:600,6540
|
||||
SCOREDIFF:235
|
||||
|
||||
#START
|
||||
#BARLINEOFF
|
||||
0,
|
||||
#BARLINEON
|
||||
11,
|
||||
70000008, //3
|
||||
|
||||
#BPMCHANGE 172
|
||||
33000000,
|
||||
11000000,
|
||||
33000000,
|
||||
2220,
|
||||
|
||||
33,
|
||||
33,
|
||||
33,
|
||||
2220, //11
|
||||
|
||||
11,
|
||||
1,
|
||||
1011,
|
||||
1,
|
||||
|
||||
22,
|
||||
500000000000000000000000000008000000000000000000,
|
||||
11,
|
||||
1110, //19
|
||||
|
||||
32,
|
||||
2330,
|
||||
32,
|
||||
2330,
|
||||
|
||||
1001,
|
||||
01,
|
||||
1001,
|
||||
01, //27
|
||||
|
||||
10010010,
|
||||
01001000,
|
||||
10010010,
|
||||
01001000,
|
||||
|
||||
3,
|
||||
0,
|
||||
2,
|
||||
21, //35
|
||||
|
||||
2,
|
||||
22,
|
||||
2,
|
||||
5,
|
||||
0,
|
||||
#MEASURE 8/4
|
||||
000000000000000000000000000000000000000000000008000000000000000000000000000000000000000000000000, //41
|
||||
|
||||
#MEASURE 3/4
|
||||
#GOGOSTART
|
||||
310,
|
||||
420,
|
||||
310,
|
||||
330,
|
||||
|
||||
310,
|
||||
420,
|
||||
310,
|
||||
330, //49
|
||||
|
||||
111,
|
||||
222,
|
||||
111,
|
||||
330,
|
||||
|
||||
111,
|
||||
222,
|
||||
111,
|
||||
#GOGOEND
|
||||
101,
|
||||
011, //58
|
||||
|
||||
#MEASURE 4/4
|
||||
#GOGOSTART
|
||||
12,
|
||||
12,
|
||||
1011,
|
||||
11,
|
||||
|
||||
22,
|
||||
500000000000000000000000000008000000000000000000,
|
||||
11,
|
||||
1110, //66
|
||||
#GOGOEND
|
||||
|
||||
32,
|
||||
2330,
|
||||
32,
|
||||
2330,
|
||||
|
||||
30002200,
|
||||
2440,
|
||||
30002200,
|
||||
2440, //74
|
||||
|
||||
#MEASURE 3/4
|
||||
#SCROLL 1.25
|
||||
222,
|
||||
#SCROLL 1.5
|
||||
444,
|
||||
#MEASURE 4/4
|
||||
#SCROLL 2
|
||||
700000000000000000000000000000000000080000000000,
|
||||
#SCROLL 3
|
||||
500000000000000000000000000000000008000000000000,
|
||||
|
||||
#BARLINEOFF
|
||||
#SCROLL 1
|
||||
0,
|
||||
0,
|
||||
0,
|
||||
0, //82
|
||||
#END
|
||||
Reference in New Issue
Block a user