This commit is contained in:
2026-03-04 23:59:27 +09:00
parent 6e0312f5b4
commit 4b4e2b8c98
1128 changed files with 668765 additions and 0 deletions

333
tja/429.tja Normal file
View File

@@ -0,0 +1,333 @@
//TJADB Project
TITLE:Hikaru Yami
TITLEJA:光る闇
SUBTITLE:--Go Shiina feat. Nami Nakagawa/Tales of the World Reve Unitia
SUBTITLEJA:テイルズ オブ ザ ワールド レーヴ ユナイティア
BPM:155.89
WAVE:Hikaru Yami.ogg
OFFSET:-6.133
DEMOSTART:63.878
COURSE:Oni
LEVEL:8
BALLOON:10,10,8
SCOREINIT:710
SCOREDIFF:180
#START
#SCROLL 1.02
10110000,
#BPMCHANGE 161.42
#SCROLL 0.99
10110000,
11,
10110101,
#BPMCHANGE 160
#SCROLL 1
10210121,
7008,
20212212,
7082,
10110020,
10110020,
10110020,
5,
000000000008000000000000000000000000000000000000,//13
#GOGOSTART
30010011,
12,
11,
1,
40020022,
2,
2000202220000000,
2220222070000000,//21
#GOGOEND
8,
1010201110102010,
01210121,
0011201000112010,
0011201110112010,
0010201110102010,
0010201000121020,
0012102000121010,
0011201110112010,
02,
01102110,
10012001,
01102033,
30330044,
40440033,
3010201110102011,
1011202212221222,
13000000,//39
#GOGOSTART
1010221010102210,
1011201110112010,
1010221010102210,
1011201110112010,
2011201020112010,
2011201000002010,
2022101020221010,
2022101220112000,
1010221010102210,
1011201110112010,
1010221010102210,
1011201110112010,
2011201220112012,
2011221122112211,
2011201022112210,
4433,//55
#GOGOEND
1022,
10210020,
10102110,
10210000,
10102121,
0011201000112010,
1221221212104040,
#END
COURSE:Hard
LEVEL:5
BALLOON:8,8,7
#START
10110000,
10110000,
11,
10110000,
10210121,
78,
20210212,
7082,
10110020,
10110020,
10110020,
5,
000000000008000000000000000000000000000000000000,//13
#GOGOSTART
30010011,
12,
11,
1,
40020022,
2,
22,
2270,//21
#GOGOEND
8,
10201121,
01010121,
01210121,
01211121,
00201121,
01010121,
01210121,
01211121,
02,
01102110,
10012001,
01102033,
30330044,
40440033,
30330033,
3344,
,//39
#GOGOSTART
11211020,
11211020,
11211202,
11211201,
0011101000111010,
0011101000101020,
0022202000222020,
0022202000202000,
11211020,
11211020,
11211202,
11211202,
11211220,
21121121,
0011101000111010,
4433,//55
#GOGOEND
1022,
10210020,
10102110,
10210000,
10102121,
0011101000111010,
0011101011104040,
,
#END
COURSE:Normal
LEVEL:5
BALLOON:6,6,5
#START
1100,
1100,
11,
1100,
11,
78,
22,
78,
1100,
1100,
11,
5,
000000000008000000000000000000000000000000000000,//13
#GOGOSTART
3001,
12,
11,
1,
4002,
2,
22,
2270,//21
#GOGOEND
8,
10101110,
1110,
10101110,
1120,
10101110,
10101120,
11201120,
1110,
12,
1120,
12,
1120,
30330000,
40440000,
30330033,
3344,
,//39
#GOGOSTART
500000000000000000000000000000000000000008000000,
0111,
11101110,
1110,
11101110,
11101000,
22202220,
22202020,
500000000000000000000000000000000000000008000000,
0111,
11101110,
1110,
1120,
1122,
01110111,
4433,//55
#GOGOEND
12,
1120,
12,
1120,
1122,
10101122,
01111144,
,
#END
COURSE:Easy
LEVEL:3
BALLOON:4,4,4,6
#START
1,
1,
11,
1,
11,
78,
22,
78,
1,
1,
11,
5,
000000000008000000000000000000000000000000000000,//13
#GOGOSTART
3,
1,
11,
1,
4,
2,
22,
27,//21
#GOGOEND
8,
0101,
0111,
0101,
0111,
0101,
0111,
0101,
0111,
02,
1120,
12,
1120,
3300,
4400,
3300,
3344,
,//39
#GOGOSTART
500000000000000000000000000000000000000008000000,
0111,
11,
1110,
11,
1110,
22,
2220,
500000000000000000000000000000000000000008000000,
0111,
11,
1110,
1120,
1122,
11,
4433,//55
#GOGOEND
11,
1110,
11,
2220,
11,
1111,
90000908,
,
#END