tja
This commit is contained in:
296
tja/430.tja
Normal file
296
tja/430.tja
Normal file
@@ -0,0 +1,296 @@
|
||||
//TJADB Project
|
||||
TITLE:Tonari no Totoro
|
||||
TITLEJA:となりのトトロ
|
||||
SUBTITLE:--Azumi Inoue/My Neighbor Totoro
|
||||
BPM:129.5
|
||||
WAVE:Tonari no Totoro.ogg
|
||||
OFFSET:-2.003
|
||||
DEMOSTART:57.597
|
||||
|
||||
COURSE:Oni
|
||||
LEVEL:5
|
||||
BALLOON:15
|
||||
SCOREINIT:780
|
||||
SCOREDIFF:233
|
||||
|
||||
|
||||
#START
|
||||
|
||||
|
||||
12210202,
|
||||
12210202,
|
||||
30330303,
|
||||
0030002010222000,
|
||||
30330303,
|
||||
0030002220102000,
|
||||
11210121,
|
||||
11210121,
|
||||
11210120,
|
||||
1022202220102000,
|
||||
10201021,
|
||||
01201120,
|
||||
10201021,
|
||||
01201120,
|
||||
11201021,
|
||||
01201120,
|
||||
10022010,
|
||||
10022010,
|
||||
10201121,
|
||||
01201021,
|
||||
10201121,
|
||||
01201120,
|
||||
11221021,
|
||||
01201120,
|
||||
11221021,
|
||||
01201120,
|
||||
10201221,
|
||||
02201221,
|
||||
1110301110301110,
|
||||
34401110,
|
||||
|
||||
#GOGOSTART
|
||||
30330303,
|
||||
0011101010002000,
|
||||
30330303,
|
||||
0011102220102000,
|
||||
10201121,
|
||||
10210120,
|
||||
11211021,
|
||||
01203330,
|
||||
30330303,
|
||||
0011102020111000,
|
||||
30330303,
|
||||
0011102220111020,
|
||||
10201121,
|
||||
10211020,
|
||||
3011103011103060,
|
||||
000000000000000000000000000000000008000000000000,
|
||||
30112211,
|
||||
7,
|
||||
8,
|
||||
30330303,
|
||||
0011102010002000,
|
||||
30330303,
|
||||
03000000,
|
||||
|
||||
#GOGOEND
|
||||
|
||||
|
||||
#END
|
||||
|
||||
|
||||
COURSE:Hard
|
||||
LEVEL:1
|
||||
BALLOON:12,6,8,13,12
|
||||
SCOREINIT:880
|
||||
SCOREDIFF:210
|
||||
|
||||
|
||||
#START
|
||||
|
||||
|
||||
,
|
||||
,
|
||||
10110101,
|
||||
01000000,
|
||||
10110101,
|
||||
01000000,
|
||||
1112,
|
||||
1112,
|
||||
1112,
|
||||
7,
|
||||
80101022,
|
||||
0120,
|
||||
00101025,
|
||||
000000000000000000000008000000000000000000000000,
|
||||
10202011,
|
||||
0221,
|
||||
10011000,
|
||||
20022000,
|
||||
00101021,
|
||||
0120,
|
||||
00101025,
|
||||
000000000000000000000008000000000000000000000000,
|
||||
10102027,
|
||||
00080101,
|
||||
10102027,
|
||||
0008,
|
||||
10101022,
|
||||
02201117,
|
||||
,
|
||||
08001110,//30
|
||||
|
||||
#GOGOSTART
|
||||
10110303,
|
||||
03002020,
|
||||
10110303,
|
||||
03002220,
|
||||
10201120,
|
||||
10210020,
|
||||
10201125,
|
||||
000000000008000000000000100000100000100000000000,
|
||||
30330303,
|
||||
03002020,
|
||||
30330303,
|
||||
03002220,
|
||||
10201120,
|
||||
10211020,
|
||||
30030036,
|
||||
000000000000000000000000000000000008000000000000,
|
||||
30111022,
|
||||
7,
|
||||
8,
|
||||
30330303,
|
||||
03002120,
|
||||
30330303,
|
||||
03000000,//53
|
||||
|
||||
#GOGOEND
|
||||
,
|
||||
,
|
||||
,
|
||||
,
|
||||
,
|
||||
#END
|
||||
|
||||
COURSE:Normal
|
||||
LEVEL:3
|
||||
BALLOON:6,6,10,10,10
|
||||
SCOREINIT:1100
|
||||
SCOREDIFF:340
|
||||
|
||||
#START
|
||||
,
|
||||
,
|
||||
10110101,
|
||||
01000000,
|
||||
10110101,
|
||||
01000000,
|
||||
12,
|
||||
12,
|
||||
500000000000000000000000000000000008000000000000,
|
||||
600000000000000000000000000000000008000000000000,
|
||||
1110,
|
||||
1,
|
||||
1110,
|
||||
1,
|
||||
2220,
|
||||
2220,
|
||||
11,
|
||||
22,
|
||||
1110,
|
||||
2,
|
||||
1110,
|
||||
2,
|
||||
1011,
|
||||
7008,
|
||||
1011,
|
||||
7008,
|
||||
1110,
|
||||
1110,
|
||||
9009,
|
||||
8,//30
|
||||
|
||||
#GOGOSTART
|
||||
10110303,
|
||||
03000000,
|
||||
10110303,
|
||||
03000000,
|
||||
1110,
|
||||
22,
|
||||
1115,
|
||||
000000000008000000000000000000000000000000000000,
|
||||
10110303,
|
||||
03000000,
|
||||
10110303,
|
||||
03000000,
|
||||
1110,
|
||||
22,
|
||||
9009,
|
||||
8,
|
||||
3011,
|
||||
7,
|
||||
8,
|
||||
30330303,
|
||||
03000000,
|
||||
30330303,
|
||||
03000000,//53
|
||||
|
||||
#GOGOEND
|
||||
,
|
||||
,
|
||||
,
|
||||
,
|
||||
,
|
||||
#END
|
||||
|
||||
COURSE:Easy
|
||||
LEVEL:2
|
||||
BALLOON:4,4,8,8,8
|
||||
SCOREINIT:1010
|
||||
SCOREDIFF:400
|
||||
|
||||
#START
|
||||
,
|
||||
,
|
||||
10000101,
|
||||
01000000,
|
||||
10000101,
|
||||
01000000,
|
||||
12,
|
||||
12,
|
||||
500000000000000000000000000000000008000000000000,
|
||||
600000000000000000000000000000000008000000000000,
|
||||
11,
|
||||
1,
|
||||
11,
|
||||
1,
|
||||
2,
|
||||
2,
|
||||
11,
|
||||
22,
|
||||
11,
|
||||
1,
|
||||
11,
|
||||
1,
|
||||
12,
|
||||
7008,
|
||||
12,
|
||||
7008,
|
||||
11,
|
||||
1110,
|
||||
9009,
|
||||
8,//30
|
||||
|
||||
#GOGOSTART
|
||||
30000101,
|
||||
01000000,
|
||||
30000101,
|
||||
01000000,
|
||||
11,
|
||||
1,
|
||||
22,
|
||||
2,
|
||||
30000303,
|
||||
03000000,
|
||||
30000303,
|
||||
03000000,
|
||||
11,
|
||||
1110,
|
||||
9009,
|
||||
8,
|
||||
3011,
|
||||
7,
|
||||
8,
|
||||
30300101,
|
||||
01000000,
|
||||
30300101,
|
||||
01000000,//53
|
||||
|
||||
#GOGOEND
|
||||
,
|
||||
,
|
||||
,
|
||||
,
|
||||
,
|
||||
#END
|
||||
Reference in New Issue
Block a user