This commit is contained in:
2026-03-04 23:59:27 +09:00
parent 6e0312f5b4
commit 4b4e2b8c98
1128 changed files with 668765 additions and 0 deletions

514
tja/431.tja Normal file
View File

@@ -0,0 +1,514 @@
//TJADB Project
TITLE:Geki-un! Shichifuku Happy Crew
TITLEJA:激運!七福ハッピークルー
SUBTITLE:--Yuuya Kobayashi (IOSYS) feat. Momiji Yamamoto (monotone)
SUBTITLEJA:コバヤシユウヤ(IOSYS) feat.山本椛(monotone)
BPM:180
WAVE:Geki-un! Shichifuku Happy Crew.ogg
OFFSET:-1.513
DEMOSTART:6.839
//Shinuchi: 6630/4200/1730/1240
COURSE:Oni
LEVEL:9
BALLOON:4,7,14
SCOREINIT:390,1280
SCOREDIFF:95
#START
#GOGOSTART
1102201102201120,
1102201102201120,
1102201102201120,
1102112000400000, //4
1022102010221020,
1011201012212010,
1022102010221020,
2011102011211011,
1022102010221020,
1011201012212010,
1011201020112010,
2012212010010010, //12
1022102010221020,
1011201012212210,
1022102010221020,
2011102011211211,
1022102010221020,
1011201012212210,
1011201020112010,
2011201112212210,
12211221,
100000200200100200200200500000000000000008000000, //22
1022102011201020,
2012102011202000,
1022102011201020,
2012102010221000,
1022102011201020,
2012102011202000,
1022102011221020,
500000000000000000000000000000000008000000000000, //30
#GOGOEND
1020112010210120,
1020112010210120,
1020112010210120,
500000000000000008000000700000000000800000000000,
4012001040120010,
3012001040120010,
4012001040120010,
4011201070000080, //38
#GOGOSTART
1102201102201120,
1102201102201120,
1102201102201120,
1102201102201120,
1112201112201120,
1112201112201120,
1112201112201120,
7008, //46
#GOGOEND
12,
2220,
12,
2220,
10222020,
10222000,
12211221,
1221122110004000, //54
#GOGOSTART
1022102010221020,
1011201012212210,
1022102010221020,
2011102011211211,
1022102010221020,
1011201012212210,
1011201020112010,
2011201112212211,
1020201110202011,
100000200200100200200200500000000000000008000000, //64
1022102011201020,
2012102011202000,
1022102011201020,
2012102010221000,
1022102011201020,
2012102011202000,
1022102010201122,
200000100200100000200000101010100000400000000000, //72
100000202020100000200000100100200000100000200000,
2012102011222000,
100000202020100000200000100100200000100000200000,
2012102011221000,
100000202020100000200000100100200000100000200000,
2012102011222000,
100000202020100000200000100100200200100100200000,
500000000000000000000000000000000008000000000000, //80
1102201102201120,
1102201102201120,
1102201102201120,
1102112000003000,
#GOGOEND
0,
#BARLINEOFF
0,
0,
0,
0, //89
#END
COURSE:Hard
LEVEL:7
BALLOON:8,8,10,8
SCOREINIT:430,1890
SCOREDIFF:105
#START
#GOGOSTART
1001001001001110,
1001001001001110,
1001001001001110,
3003003000400000, //4
1011101010002020,
1011101020000000,
1011101010002020,
1011102020000000,
1011101010002020,
1011101020000000,
11221122,
500000000000000000000000000000000008000000000000, //12
1011102010002020,
1011101020000000,
1011102010002020,
1011102020000000,
1011102010002020,
1011101020000000,
11221122,
70000801,
12211223,
34343000, //22
1011101010102020,
0022201010202000,
1011101010102020,
0022201010201000,
1011101010102020,
0022201010202000,
1011101010102020,
500000000000000000000000000000000008000000000000, //30
#GOGOEND
1020111010010010,
1020111010010010,
500000000000000000000000000000000000000008000000,
7008,
41014101,
31014101,
41014101,
400000100000100000200000500000000000000008000000, //38
#GOGOSTART
1001001001001110,
1001001001001110,
1001001001001110,
1001001001001110,
2001001001001110,
2001001001001110,
2001001001001110,
7008, //46
#GOGOEND
12,
2220,
12,
2220,
10222020,
10222000,
11221122,
34343040, //54
#GOGOSTART
1011102010002020,
1011101020000000,
1011102010002020,
1011102020000000,
1011102010002020,
1011101020000000,
11221122,
70000801,
12211223,
34343000, //64
1011101010102020,
0022201010202000,
1011101010102020,
0022201010201000,
1011101010102020,
0022201010202000,
1011101010001020,
0022202011104000, //72
1011102010102020,
0022201010202000,
1011102010102020,
0022201010201000,
1011102010102020,
0022201010202000,
1011102010102020,
500000000000000000000000000000000008000000000000, //80
1001001001001110,
1001001001001110,
1001001001001110,
4003004000003000,
#GOGOEND
0,
#BARLINEOFF
0,
0,
0,
0, //89
#END
COURSE:Normal
LEVEL:5
BALLOON:24,6,24,24,22
SCOREINIT:760,4790
SCOREDIFF:213
#START
#GOGOSTART
9,
0,
0900,
8, //4
1112,
11102000,
1112,
11102000,
1112,
11102000,
11102220,
500000000000000000000000000000000008000000000000, //12
1112,
11102000,
1112,
11102000,
1112,
11102000,
11102220,
500000000000000000000000000000000008000000000000,
1212,
3330, //22
10001011,
02201110,
10001011,
02201110,
10001011,
02201110,
5,
000000000000000000000000000000000008000000000000, //30
#GOGOEND
0,
0,
500000000000000000000000000000000008000000000000,
7008,
44,
34,
44,
4, //38
#GOGOSTART
9,
0,
0900,
8,
9,
0,
0900,
8, //46
#GOGOEND
1,
0,
1,
0,
1,
1,
11,
3330, //54
#GOGOSTART
1112,
11102000,
1112,
11102000,
1112,
11102000,
11102220,
500000000000000000000000000000000008000000000000,
1212,
3330, //64
10001011,
02201110,
10001011,
02201110,
10001011,
02201110,
5,
000000000000000000000000000000000008000000000000, //72
10101011,
02201110,
10101011,
02201110,
10101011,
02201110,
5,
000000000000000000000000000000000008000000000000,
9,
0,
0900000000008000,
0003,
#GOGOEND
0,
#BARLINEOFF
0,
0,
0,
0, //89
#END
COURSE:Easy
LEVEL:4
BALLOON:20,5,18,18,18
SCOREINIT:740,8020
SCOREDIFF:263
#START
#GOGOSTART
9,
0,
0900,
8, //4
11,
1110,
11,
2220,
11,
1110,
2222,
500000000000000000000000000008000000000000000000, //12
11,
1110,
11,
2220,
11,
1110,
2222,
500000000000000000000000000008000000000000000000,
11,
3330, //22
11,
0011,
11,
0011,
11,
0011,
5,
000000000000000000000000000000000008000000000000, //30
#GOGOEND
0,
0,
500000000000000000000000000000000008000000000000,
7008,
44,
34,
44,
4, //38
#GOGOSTART
9,
0,
0900,
8,
9,
0,
0900,
8, //46
#GOGOEND
1,
0,
1,
0,
1,
1,
11,
3330, //54
#GOGOSTART
11,
1110,
11,
2220,
11,
1110,
2222,
500000000000000000000000000008000000000000000000,
11,
3330, //64
11,
0011,
11,
0011,
11,
0011,
5,
000000000000000000000000000008000000000000000000, //72
1110,
0011,
1110,
0011,
1110,
0011,
5,
000000000000000000000000000008000000000000000000, //80
9,
0,
0900000000008000,
0003,
#GOGOEND
0,
#BARLINEOFF
0,
0,
0,
0, //89
#END