tja
This commit is contained in:
552
tja/432.tja
Normal file
552
tja/432.tja
Normal file
@@ -0,0 +1,552 @@
|
||||
//TJADB Project
|
||||
TITLE:Boukyaku no Tirnanog
|
||||
TITLEJA:忘却のティルナノグ
|
||||
SUBTITLE:--YMY & Hawk
|
||||
SUBTITLEJA:山本由貴子
|
||||
BPM:165
|
||||
WAVE:Boukyaku no Tirnanog.ogg
|
||||
OFFSET:-5.953
|
||||
DEMOSTART:99.028
|
||||
|
||||
//shinuchi: 5480/3590/1830/1230
|
||||
|
||||
COURSE:Oni
|
||||
LEVEL:9
|
||||
BALLOON:38,8
|
||||
SCOREINIT:410,1260
|
||||
SCOREDIFF:100
|
||||
|
||||
#START
|
||||
1122101000102011,
|
||||
1020001110201020,
|
||||
1011201000102011,
|
||||
1020001110102010,
|
||||
|
||||
1011201022102011,
|
||||
2010221011102010,
|
||||
1000201000112010,
|
||||
000222100400, //8
|
||||
|
||||
2211201000102011,
|
||||
1010201122102010,
|
||||
1011201000112010,
|
||||
1011221000112010,
|
||||
|
||||
1021101021101021,
|
||||
1010211011102010,
|
||||
1000201000201210,
|
||||
43000000, //16
|
||||
|
||||
#MEASURE 3/4
|
||||
222222200,
|
||||
222,
|
||||
222222200,
|
||||
221,
|
||||
|
||||
221221200,
|
||||
212,
|
||||
221221200,
|
||||
221, //24
|
||||
|
||||
222111222,
|
||||
111200100,
|
||||
222111222,
|
||||
111200100,
|
||||
|
||||
211211211,
|
||||
211200100,
|
||||
211211200,
|
||||
34, //32
|
||||
|
||||
#MEASURE 4/4
|
||||
#GOGOSTART
|
||||
1011201110112011,
|
||||
1011201110112010,
|
||||
1011201110112011,
|
||||
1011201110112010,
|
||||
|
||||
2211201110112010,
|
||||
1020221010122010,
|
||||
1011201022102010,
|
||||
1022102211221122, //40
|
||||
|
||||
1011201110221010,
|
||||
1022201110222010,
|
||||
1011201110221010,
|
||||
1022201110222010,
|
||||
|
||||
1122102110211010,
|
||||
1122102110211010,
|
||||
1022102210221022,
|
||||
1022112211221122, //48
|
||||
#GOGOEND
|
||||
|
||||
7,
|
||||
0,
|
||||
00802002,
|
||||
02102210,
|
||||
|
||||
200000200000100000200222,
|
||||
200200100000200000100222,
|
||||
200000200000100000200222,
|
||||
100200100000200000100222, //56
|
||||
|
||||
200000200000100000200222,
|
||||
12102012,
|
||||
20201021,
|
||||
12102210,
|
||||
|
||||
1111,
|
||||
1000100010001110,
|
||||
1111,
|
||||
1000100010001110,
|
||||
|
||||
12121212,
|
||||
1020102010201210,
|
||||
12121212,
|
||||
12127008, //68
|
||||
|
||||
#GOGOSTART
|
||||
1011201110112011,
|
||||
1011201110112010,
|
||||
1011201110112011,
|
||||
1011201110112010,
|
||||
|
||||
2211201110112010,
|
||||
1020221010122010,
|
||||
2011201022102010,
|
||||
1022102211221122, //76
|
||||
|
||||
1021102210211010,
|
||||
1022112211221120,
|
||||
1021102210211010,
|
||||
1022112211221120,
|
||||
|
||||
1122102110211010,
|
||||
1221102110211010,
|
||||
2211221122112211,
|
||||
2211112211221122, //84
|
||||
#GOGOEND
|
||||
|
||||
1000201000221000,
|
||||
2010002210102011,
|
||||
1000201000221000,
|
||||
2010002210201000,
|
||||
|
||||
1011201110102011,
|
||||
1020101120102000,
|
||||
100222111222,
|
||||
111222111222, //92
|
||||
|
||||
1,
|
||||
#SCROLL 4
|
||||
0300,
|
||||
#SCROLL 1
|
||||
0,
|
||||
0, //96
|
||||
#END
|
||||
|
||||
|
||||
COURSE:Hard
|
||||
LEVEL:7
|
||||
BALLOON:26,4,36
|
||||
SCOREINIT:480,1900
|
||||
SCOREDIFF:120
|
||||
|
||||
#START
|
||||
10210210,
|
||||
2010001110201020,
|
||||
10210210,
|
||||
2010001110201000,
|
||||
|
||||
11210112,
|
||||
11011210,
|
||||
10210121,
|
||||
000111100400, //8
|
||||
|
||||
1011101000102010,
|
||||
10210121,
|
||||
1011101000102010,
|
||||
10210120,
|
||||
|
||||
11210112,
|
||||
11011210,
|
||||
1000201000101110,
|
||||
33000000, //16
|
||||
|
||||
#MEASURE 3/4
|
||||
202202,
|
||||
222,
|
||||
202202,
|
||||
220,
|
||||
|
||||
202202,
|
||||
222,
|
||||
202202,
|
||||
220, //24
|
||||
|
||||
102202,
|
||||
200020002022,
|
||||
202202,
|
||||
220,
|
||||
|
||||
102202,
|
||||
222,
|
||||
202202,
|
||||
34, //32
|
||||
|
||||
#MEASURE 4/4
|
||||
#GOGOSTART
|
||||
1000201000111010,
|
||||
1000201000111010,
|
||||
1000201000111010,
|
||||
10210110,
|
||||
|
||||
1010201000111020,
|
||||
11221120,
|
||||
1011101010111010,
|
||||
10110210, //40
|
||||
|
||||
1011101000102010,
|
||||
1011101000200020,
|
||||
1011101000102010,
|
||||
1011101000102000,
|
||||
|
||||
1011101000102010,
|
||||
1011101000102000,
|
||||
11210121,
|
||||
1011101110111010, //48
|
||||
#GOGOEND
|
||||
|
||||
7,
|
||||
0,
|
||||
00802002,
|
||||
02102210,
|
||||
|
||||
20201001,
|
||||
02102210,
|
||||
20201001,
|
||||
02102012, //56
|
||||
|
||||
20201001,
|
||||
02102012,
|
||||
20201001,
|
||||
02102000,
|
||||
|
||||
1111,
|
||||
1000100010001110,
|
||||
1111,
|
||||
1000100010001110,
|
||||
|
||||
12101210,
|
||||
1020102010001110,
|
||||
12101210,
|
||||
12107008, //68
|
||||
|
||||
#GOGOSTART
|
||||
1011101000111010,
|
||||
1011101000200020,
|
||||
1011101000111010,
|
||||
1011101000201000,
|
||||
|
||||
1010201000111020,
|
||||
11221120,
|
||||
1011101010111010,
|
||||
1000202000101110, //76
|
||||
|
||||
1011101000102010,
|
||||
1011101110111000,
|
||||
1011101000102010,
|
||||
1011101110111000,
|
||||
|
||||
1011101000102010,
|
||||
1011101000202000,
|
||||
1011101110111000,
|
||||
2022202220222000, //84
|
||||
#GOGOEND
|
||||
|
||||
10210210,
|
||||
21021020,
|
||||
10210210,
|
||||
21021010,
|
||||
|
||||
11210112,
|
||||
11011210,
|
||||
7,
|
||||
0,
|
||||
|
||||
0,
|
||||
8300,
|
||||
0,
|
||||
0, //96
|
||||
#END
|
||||
|
||||
|
||||
COURSE:Normal
|
||||
LEVEL:5
|
||||
BALLOON:16,20
|
||||
SCOREINIT:670,3870
|
||||
SCOREDIFF:203
|
||||
|
||||
#START
|
||||
10010010,
|
||||
01001010,
|
||||
10010010,
|
||||
01001010,
|
||||
|
||||
30030030,
|
||||
03003000,
|
||||
500000000000000000000000000000000000000008000000,
|
||||
0330, //8
|
||||
|
||||
10010010,
|
||||
10010020,
|
||||
10010010,
|
||||
10010020,
|
||||
|
||||
30040030,
|
||||
04003000,
|
||||
600000000000000000000000000000000000000000000008,
|
||||
0, //16
|
||||
|
||||
#MEASURE 3/4
|
||||
22,
|
||||
220,
|
||||
22,
|
||||
220,
|
||||
|
||||
22,
|
||||
220,
|
||||
22,
|
||||
2, //24
|
||||
|
||||
12,
|
||||
220,
|
||||
12,
|
||||
220,
|
||||
|
||||
12,
|
||||
220,
|
||||
12,
|
||||
3, //32
|
||||
|
||||
#MEASURE 4/4
|
||||
#GOGOSTART
|
||||
10110110,
|
||||
10110000,
|
||||
10110110,
|
||||
10110000,
|
||||
|
||||
10110110,
|
||||
1210,
|
||||
11101110,
|
||||
1120, //40
|
||||
|
||||
10110220,
|
||||
10110000,
|
||||
10110220,
|
||||
10110000,
|
||||
|
||||
10110220,
|
||||
10110000,
|
||||
11101110,
|
||||
10101110, //48
|
||||
#GOGOEND
|
||||
|
||||
7,
|
||||
000000000000000000000000000000000000000000000008,
|
||||
0,
|
||||
0,
|
||||
|
||||
1100,
|
||||
12,
|
||||
1100,
|
||||
12, //56
|
||||
|
||||
1100,
|
||||
12,
|
||||
1100,
|
||||
12,
|
||||
|
||||
11,
|
||||
1110,
|
||||
11,
|
||||
1110,
|
||||
|
||||
12,
|
||||
1110,
|
||||
12,
|
||||
500000000000000000000008000000000000000000000000, //68
|
||||
|
||||
#GOGOSTART
|
||||
10110110,
|
||||
10110000,
|
||||
10110110,
|
||||
10110000,
|
||||
|
||||
10110110,
|
||||
1210,
|
||||
11101110,
|
||||
1120, //76
|
||||
|
||||
10110220,
|
||||
10110020,
|
||||
10110220,
|
||||
10110020,
|
||||
|
||||
10110220,
|
||||
10110020,
|
||||
11101110,
|
||||
11102020, //84
|
||||
#GOGOEND
|
||||
|
||||
10010010,
|
||||
01001010,
|
||||
10010010,
|
||||
01001010,
|
||||
|
||||
10010010,
|
||||
01001020,
|
||||
7,
|
||||
0,
|
||||
|
||||
0008,
|
||||
0300,
|
||||
0,
|
||||
0, //96
|
||||
#END
|
||||
|
||||
|
||||
COURSE:Easy
|
||||
LEVEL:4
|
||||
BALLOON:9,13,9,18,18
|
||||
SCOREINIT:630,6480
|
||||
SCOREDIFF:210
|
||||
|
||||
#START
|
||||
10010010,
|
||||
01001000,
|
||||
10010010,
|
||||
01001000,
|
||||
|
||||
30030030,
|
||||
03003000,
|
||||
300000000000000000600000000000000000000008000000,
|
||||
0330, //8
|
||||
|
||||
10020000,
|
||||
10020000,
|
||||
10020000,
|
||||
10020000,
|
||||
|
||||
30030030,
|
||||
03003000,
|
||||
600000000000000000000000000000000000000000000008,
|
||||
0, //16
|
||||
|
||||
#MEASURE 3/4
|
||||
2,
|
||||
2,
|
||||
2,
|
||||
220,
|
||||
|
||||
2,
|
||||
2,
|
||||
2,
|
||||
220, //24
|
||||
|
||||
1,
|
||||
2,
|
||||
1,
|
||||
220,
|
||||
|
||||
1,
|
||||
2,
|
||||
500000000000000000000000000000000008,
|
||||
0, //32
|
||||
|
||||
#MEASURE 4/4
|
||||
#GOGOSTART
|
||||
11,
|
||||
1110,
|
||||
11,
|
||||
1110,
|
||||
|
||||
7,
|
||||
08,
|
||||
11,
|
||||
3330, //40
|
||||
|
||||
12,
|
||||
1110,
|
||||
12,
|
||||
1110,
|
||||
|
||||
12,
|
||||
12,
|
||||
1110,
|
||||
1110, //48
|
||||
#GOGOEND
|
||||
|
||||
7,
|
||||
000000000000000000000000000000000000000000000008,
|
||||
0,
|
||||
0,
|
||||
|
||||
1100,
|
||||
2,
|
||||
1100,
|
||||
2, //56
|
||||
|
||||
1100,
|
||||
2,
|
||||
1100,
|
||||
2,
|
||||
|
||||
11,
|
||||
1110,
|
||||
11,
|
||||
1110,
|
||||
|
||||
12,
|
||||
1110,
|
||||
12,
|
||||
500000000000000000000008000000000000000000000000, //68
|
||||
|
||||
#GOGOSTART
|
||||
11,
|
||||
1110,
|
||||
11,
|
||||
1110,
|
||||
|
||||
7,
|
||||
08,
|
||||
11,
|
||||
3330, //76
|
||||
|
||||
12,
|
||||
1110,
|
||||
12,
|
||||
1110,
|
||||
|
||||
12,
|
||||
12,
|
||||
1110,
|
||||
1110, //84
|
||||
#GOGOEND
|
||||
|
||||
7,
|
||||
0,
|
||||
0008,
|
||||
0,
|
||||
|
||||
10010010,
|
||||
01001000,
|
||||
7,
|
||||
0,
|
||||
|
||||
0008,
|
||||
0300,
|
||||
0,
|
||||
0, //96
|
||||
#END
|
||||
Reference in New Issue
Block a user