tja
This commit is contained in:
383
tja/434.tja
Normal file
383
tja/434.tja
Normal file
@@ -0,0 +1,383 @@
|
||||
//TJADB Project
|
||||
TITLE:Russian Folk Medley
|
||||
TITLEJA:ロシア民謡メドレー
|
||||
SUBTITLE:--Koji Nakagawa/Korobeiniki & Kalinka & Troika
|
||||
BPM:132
|
||||
WAVE:Russian Folk Medley.ogg
|
||||
OFFSET:-2.127
|
||||
DEMOSTART:0.297
|
||||
|
||||
COURSE:Oni
|
||||
LEVEL:7
|
||||
BALLOON:9
|
||||
SCOREINIT:600
|
||||
SCOREDIFF:150
|
||||
|
||||
#START
|
||||
0000000002022000,
|
||||
1001202012012020,
|
||||
1001202012012020,
|
||||
1001202010012020,
|
||||
1110111030022000,
|
||||
0022202022022020,
|
||||
1001101010222020,
|
||||
1001202010012020,
|
||||
1110111030022000,
|
||||
#SCROLL 1.09
|
||||
0022202022022020,
|
||||
1001101010222020,
|
||||
1020102011201020,
|
||||
1110111012021020,
|
||||
#SCROLL 1.1
|
||||
3022202010021000,
|
||||
3022202010021000,
|
||||
3022202030222020,
|
||||
1110111030022000,
|
||||
0030001011012020,
|
||||
1001101010222020,
|
||||
3011102030111020,
|
||||
1110111030022000,//21
|
||||
|
||||
#BPMCHANGE 140
|
||||
#SCROLL 1.15
|
||||
0030001011012020,
|
||||
1001101010222020,
|
||||
1120102011201020,
|
||||
34343000,//25
|
||||
|
||||
#BPMCHANGE 100
|
||||
#SCROLL 1.3
|
||||
10
|
||||
#BPMCHANGE 120
|
||||
#SCROLL 1.1
|
||||
11
|
||||
#BPMCHANGE 132.35
|
||||
#SCROLL 1
|
||||
1011,
|
||||
#BPMCHANGE 132
|
||||
10111022,
|
||||
1001101010201010,
|
||||
1011101010222020,
|
||||
2000111110201010,
|
||||
12111233,
|
||||
3001101010201010,
|
||||
1011101010404000,//33
|
||||
|
||||
#GOGOSTART
|
||||
70000800,
|
||||
1020102210002000,
|
||||
1020102210102000,
|
||||
10121122,
|
||||
1120102010222020,
|
||||
1020102210002000,
|
||||
1020102210102000,
|
||||
10121122,
|
||||
100100100000200200200000500000000000000000000008,//42
|
||||
|
||||
#BARLINEOFF
|
||||
#GOGOEND
|
||||
#SCROLL 0.8
|
||||
000000000000000000000000200200200200100000000000,
|
||||
#BARLINEON
|
||||
#MEASURE 4/4
|
||||
1020202010111020,
|
||||
1020201110201022,
|
||||
1020202011112020,
|
||||
500000000000000000000000000008000000000000000000,
|
||||
1020202010111020,
|
||||
1020201110201022,
|
||||
1020201110201020,
|
||||
500000000000000000000000000008000000000000000000,
|
||||
#BPMCHANGE 140
|
||||
#SCROLL 1.05
|
||||
1020202010111022,
|
||||
1020201110201022,
|
||||
1020102011112020,
|
||||
#BPMCHANGE 146
|
||||
#SCROLL 1
|
||||
1122112210303000,
|
||||
#SCROLL 1.05
|
||||
1122112210303000,
|
||||
#SCROLL 1.12
|
||||
1122112211111010,
|
||||
03300000,
|
||||
#SCROLL 1
|
||||
2210000000000000,
|
||||
|
||||
|
||||
#END
|
||||
|
||||
|
||||
COURSE:Hard
|
||||
LEVEL:7
|
||||
BALLOON:6,6,6,8
|
||||
SCOREINIT:720
|
||||
SCOREDIFF:180
|
||||
|
||||
#START
|
||||
,
|
||||
10121022,
|
||||
10121022,
|
||||
10121020,
|
||||
3330,
|
||||
03021022,
|
||||
10110112,
|
||||
10121020,
|
||||
3330,
|
||||
#SCROLL 1.09
|
||||
0030002010022020,
|
||||
1020101000111020,
|
||||
12121120,
|
||||
3330,
|
||||
#SCROLL 1.1
|
||||
1001102010102000,
|
||||
1001102010202000,
|
||||
1001101010011010,
|
||||
2220,
|
||||
0030001110002020,
|
||||
1001101000101020,
|
||||
1001101010011010,
|
||||
2220,
|
||||
#BPMCHANGE 140
|
||||
#SCROLL 1.15
|
||||
03011022,
|
||||
1020101000111020,
|
||||
12121120,
|
||||
3340,
|
||||
#BPMCHANGE 100
|
||||
#SCROLL 1.3
|
||||
10
|
||||
#BPMCHANGE 120
|
||||
#SCROLL 1.1
|
||||
11
|
||||
#BPMCHANGE 132.35
|
||||
#SCROLL 1
|
||||
1011,
|
||||
#BPMCHANGE 132
|
||||
10111022,
|
||||
1001101010001010,
|
||||
1011101010222020,
|
||||
20111011,
|
||||
10111022,
|
||||
1001101010001010,
|
||||
1011101010202000,//33
|
||||
|
||||
#GOGOSTART
|
||||
70000800,
|
||||
1020101110002000,
|
||||
1020101110102000,
|
||||
10121122,
|
||||
1000100010222020,
|
||||
1020101110002000,
|
||||
1020101110102000,
|
||||
10121122,
|
||||
3430,
|
||||
#GOGOEND
|
||||
#SCROLL 0.8
|
||||
0000000020222000,//43
|
||||
|
||||
12221112,
|
||||
12221212,
|
||||
12221211,
|
||||
500000000000000000000000000008000000000000000000,
|
||||
12221112,
|
||||
12221212,
|
||||
12221211,
|
||||
500000000000000000000000000008000000000000000000,//50
|
||||
#BPMCHANGE 140
|
||||
#SCROLL 1.05
|
||||
12221112,
|
||||
12221211,
|
||||
12121212,
|
||||
#BPMCHANGE 146
|
||||
#SCROLL 1
|
||||
70008330,
|
||||
#SCROLL 1.05
|
||||
70008330,
|
||||
#SCROLL 1.12
|
||||
7008,
|
||||
1110300000000000,
|
||||
#SCROLL 1
|
||||
2210000000000000,
|
||||
,
|
||||
#END
|
||||
|
||||
COURSE:Normal
|
||||
LEVEL:4
|
||||
BALLOON:6,6,8,13
|
||||
SCOREINIT:920
|
||||
SCOREDIFF:240
|
||||
|
||||
#START
|
||||
,
|
||||
11,
|
||||
1110,
|
||||
11,
|
||||
1110,
|
||||
03011020,
|
||||
10110000,
|
||||
1122,
|
||||
1110,
|
||||
#SCROLL 1.09
|
||||
03011020,
|
||||
10110000,
|
||||
1122,
|
||||
3330,
|
||||
#SCROLL 1.1
|
||||
1210,
|
||||
1210,
|
||||
1212,
|
||||
1110,
|
||||
03011020,
|
||||
10110000,
|
||||
1122,
|
||||
1110,
|
||||
#BPMCHANGE 140
|
||||
#SCROLL 1.15
|
||||
03011020,
|
||||
10110000,
|
||||
1122,
|
||||
3330,
|
||||
#BPMCHANGE 100
|
||||
#SCROLL 1.3
|
||||
1
|
||||
#BPMCHANGE 120
|
||||
#SCROLL 1.1
|
||||
0
|
||||
#BPMCHANGE 132.35
|
||||
#SCROLL 1
|
||||
10,
|
||||
#BPMCHANGE 132
|
||||
3330,
|
||||
11,
|
||||
3340,
|
||||
0310,
|
||||
3330,
|
||||
11,
|
||||
30300330,//33
|
||||
|
||||
#GOGOSTART
|
||||
70000800,
|
||||
1112,
|
||||
10101110,
|
||||
1122,
|
||||
1110,
|
||||
1112,
|
||||
10101110,
|
||||
1122,
|
||||
1220,//42
|
||||
|
||||
#GOGOEND
|
||||
#SCROLL 0.8
|
||||
,
|
||||
10011110,
|
||||
10011000,
|
||||
1212,
|
||||
500000000000000000000008000000000000000000000000,
|
||||
10011110,
|
||||
10011000,
|
||||
10011110,
|
||||
500000000000000000000008000000000000000000000000,
|
||||
#BPMCHANGE 140
|
||||
#SCROLL 1.05
|
||||
10011110,
|
||||
10011000,
|
||||
1122,
|
||||
#BPMCHANGE 146
|
||||
#SCROLL 1
|
||||
7008,
|
||||
#SCROLL 1.05
|
||||
7008,
|
||||
#SCROLL 1.12
|
||||
9,
|
||||
09,
|
||||
#SCROLL 1
|
||||
8,
|
||||
,
|
||||
#END
|
||||
|
||||
COURSE:Easy
|
||||
LEVEL:4
|
||||
BALLOON:7
|
||||
SCOREINIT:860
|
||||
SCOREDIFF:260
|
||||
|
||||
#START
|
||||
#SCROLL 0.8
|
||||
,
|
||||
11,
|
||||
1110,
|
||||
11,
|
||||
1110,
|
||||
1011,
|
||||
500000000000000000000008000000000000000000000000,
|
||||
11,
|
||||
1110,
|
||||
1011,
|
||||
500000000000000000000008000000000000000000000000,
|
||||
11,
|
||||
1110,
|
||||
12,
|
||||
12,
|
||||
1110,
|
||||
2220,
|
||||
1011,
|
||||
500000000000000000000008000000000000000000000000,
|
||||
1110,
|
||||
2220,
|
||||
#BPMCHANGE 140
|
||||
1011,
|
||||
500000000000000000000008000000000000000000000000,
|
||||
1110,
|
||||
2210,
|
||||
#BPMCHANGE 100
|
||||
#SCROLL 1
|
||||
1
|
||||
#BPMCHANGE 120
|
||||
#SCROLL 0.9
|
||||
0
|
||||
#BPMCHANGE 132.35
|
||||
#SCROLL 0.8
|
||||
10,
|
||||
#BPMCHANGE 132
|
||||
3330,
|
||||
11,
|
||||
3330,
|
||||
2110,
|
||||
3330,
|
||||
11,
|
||||
3330,//33
|
||||
|
||||
#GOGOSTART
|
||||
500000000000000000000000000000000008000000000000,
|
||||
1110,
|
||||
1110,
|
||||
11,
|
||||
2220,
|
||||
1110,
|
||||
1110,
|
||||
11,
|
||||
1220,//42
|
||||
|
||||
#GOGOEND
|
||||
,
|
||||
1011,
|
||||
11,
|
||||
1011,
|
||||
500000000000000000000008000000000000000000000000,
|
||||
1011,
|
||||
11,
|
||||
1011,
|
||||
500000000000000000000008000000000000000000000000,
|
||||
#BPMCHANGE 140
|
||||
1011,
|
||||
11,
|
||||
1122,
|
||||
#BPMCHANGE 146
|
||||
500000000000000000000008000000000000000000000000,
|
||||
500000000000000000000008000000000000000000000000,
|
||||
9,
|
||||
09,
|
||||
8,
|
||||
,
|
||||
#END
|
||||
Reference in New Issue
Block a user