This commit is contained in:
2026-03-04 23:59:27 +09:00
parent 6e0312f5b4
commit 4b4e2b8c98
1128 changed files with 668765 additions and 0 deletions

471
tja/436.tja Normal file
View File

@@ -0,0 +1,471 @@
//TJADB Project
TITLE:Usagi no Shippo
TITLEJA:うさぎのしっぽ
SUBTITLE:--K Masera feat. Mai Masuda
BPM:170
WAVE:Usagi no Shippo.ogg
OFFSET:-2.926
DEMOSTART:62.220
COURSE:Oni
LEVEL:7
SCOREINIT:520
SCOREDIFF:130
#START
,
,
22,
20020000,
22,
20020000,
22,
20020205,
000000000000000000000000000000000000000008000000,
0040400040002222,
10000112,
2000002000002222,
10000112,
2000102000002222,
10000112,
22120222,
500000000000000000000000000000000000000008000000,
01104400,
10210222,
00200220,
10210222,
0000200000222020,
10210202,
00210120,
10210222,
1000200000222000,
10210212,
0000200000222000,
10210212,
0000200000222020,
10210202,
0000201000222020,
1020201000202220,
1020201000202222,
10211021,
10210021,
3020203000202210,
3020203000202220,
10210121,
0010201000222010,
10210123,
0030003000001111,
#GOGOSTART
11211221,
1110201000222020,
11211221,
1110201000202000,
11211221,
1110201000222020,
11211221,
1110202000202222,
11211221,
3030004000222020,
11211221,
1110200011222211,
11211221,
1110201000222020,
11211225,
000000000000000000000000000000000000000000000008,
00040000,
#GOGOEND
#MEASURE 3/4
100001101,
221,
101001222,
221,
100001100,
000000002000000000002000200200100100,
212,
200111100,
#MEASURE 4/4
2,
,
2000202000202220,
2000202000202222,
2000202000202220,
2,
2000202000202220,
2000202000202222,
2000202000202220,
2000000000002220,
10201120,
10210222,
10221020,
1,
10201120,
10210222,
10221020,
1040004000402222,
#GOGOSTART
1010201110202010,
1110201000222020,
1010201110202010,
1110200022112211,
1010201110202010,
3030004000222020,
1010201110202010,
#GOGOEND
22002200,
22020200,
4,
#END
COURSE:Hard
LEVEL:5
BALLOON:8
SCOREINIT:610
SCOREDIFF:168
#START
,
,
22,
20020000,
22,
20020000,
22,
20020207,
00000008,
,
10000112,
20020000,
10000112,
20220000,
10000112,
22220222,
500000000000000000000000000000000000000000000008,
,
10220222,
00200120,
10220222,
00200220,
10220222,
00200120,
10220222,
00200220,
10210222,
00200120,
10210222,
00200220,
10210222,
00200120,
10210220,
10210220,
10211021,
10210120,
10210221,
10210220,
11210121,
01210120,
11210123,
03030000,//42
#GOGOSTART
10201120,
1010201000222020,
10221020,
1000201000222000,
10201120,
1000201000222020,
10221020,
1000201000222000,
1212,
33040222,
10221020,
1000201000222000,
10201120,
1000201000222020,
1000202000222050,
000000000000000000000000000000000000000000000008,
00040000,//59
#GOGOEND
#MEASURE 3/4
100001100,
221,
100002200,
221,
100001100,
200002200,
212,
200111100,
#MEASURE 4/4
2,
,
2,
2,
22,
2,
2,
2,
22,
2,
1212,
10020222,
10221020,
1,
1212,
10220222,
10221020,
14040400,//85
#GOGOSTART
11221122,
11020112,
20220120,
1000202010222000,
11221122,
33040111,
2020101022201000,//92
#GOGOEND
22002200,
22020200,
4,
,
#END
COURSE:Normal
LEVEL:4
BALLOON:5
#START
,
,
22,
20020000,
22,
2,
22,
20020007,
00000008,
,
22,
20020000,
22,
20220000,
22,
20220020,
500000000000000000000000000000000000000000000008,
,
1110,
2011,
11010110,
2,
1110,
2011,
10110110,
2,
1110,
2011,
11010110,
2,
1210,
2,
10010000,
20020000,
10020000,
10020000,
30030000,
40040000,
11,
1110,
10001006,
000000000000000000000008000000000000000000000000,//42
#GOGOSTART
1122,
10010110,
10111010,
2,
1122,
10010110,
10111010,
2,
3344,
33040110,
10111010,
2,
1122,
10010110,
10111010,
500000000000000000000000000000000000000000000008,
,//59
#GOGOEND
#MEASURE 3/4
101,
2,
101,
2,
101,
201,
101,
201,
#MEASURE 4/4
1,
,
2,
2,
22,
2,
2,
2,
22,
2,
1122,
10010220,
2220,
2,
1122,
10010220,
2220,
600000000000000000000000000008000000000000000000,//85
#GOGOSTART
1122,
11020110,
10111010,
2,
1122,
33040110,
10111020,//92
#GOGOEND
22,
20020200,
4,
,
#END
COURSE:Easy
LEVEL:3
BALLOON:5
#START
,
,
2,
2,
22,
2,
2,
2,
7,
8,
11,
1,
11,
1,
11,
1,
500000000000000000000000000000000000000000000008,
,
1,
2,
11,
2,
1,
2,
11,
2,
1,
2,
11,
2,
1,
2,
10010000,
10010000,
1,
1,
30030000,
40040000,
11,
1,
10001006,
000000000000000000000008000000000000000000000000,//42
#GOGOSTART
1110,
10010000,
1110,
2,
1110,
10010000,
1110,
2,
3330,
33040000,
1110,
2,
1110,
10020000,
1110,
500000000000000000000000000000000000000000000008,
,//59
#GOGOEND
#MEASURE 3/4
1,
2,
1,
2,
1,
2,
101,
201,
#MEASURE 4/4
1,
,
2,
2,
22,
2,
2,
2,
22,
2,
11,
10010000,
22,
2,
11,
10010000,
22,
600000000000000000000000000008000000000000000000,//85
#GOGOSTART
1122,
10020000,
1110,
2,
1122,
33040000,
1110,//92
#GOGOEND
22,
2,
4,
,
#END