tja
This commit is contained in:
532
tja/438.tja
Normal file
532
tja/438.tja
Normal file
@@ -0,0 +1,532 @@
|
||||
//TJADB Project
|
||||
TITLE:Ultraman Ginga no Uta
|
||||
TITLEJA:ウルトラマンギンガの歌
|
||||
SUBTITLE:--Voyager/Ultraman Ginga
|
||||
BPM:185
|
||||
WAVE:Ultraman Ginga no Uta.ogg
|
||||
OFFSET:-5.353
|
||||
DEMOSTART:49.440
|
||||
|
||||
COURSE:Oni
|
||||
LEVEL:9
|
||||
SCOREINIT:410
|
||||
SCOREDIFF:98
|
||||
|
||||
|
||||
#START
|
||||
|
||||
|
||||
33,
|
||||
33,
|
||||
6,
|
||||
000000000000000000000000000000000008000000000000,
|
||||
44,
|
||||
44,
|
||||
6,
|
||||
000000000000000000000000000000000008000000000000,//8
|
||||
|
||||
#GOGOSTART
|
||||
1000200010102011,
|
||||
11210121,
|
||||
1000201010102011,
|
||||
11210121,
|
||||
1000200010102011,
|
||||
2010202010222010,
|
||||
20210120,
|
||||
1111201022221111,//16
|
||||
|
||||
#GOGOEND
|
||||
11210121,
|
||||
2210221111222211,
|
||||
1022202220222022,
|
||||
2022202220202000,
|
||||
2022202220222022,
|
||||
2022202220202000,
|
||||
1011201011201011,
|
||||
2010112010002000,
|
||||
1022201000102010,
|
||||
0010100022222222,
|
||||
1011201110112011,
|
||||
1011201110102000,
|
||||
1011201110112011,
|
||||
1011201110102000,
|
||||
1022101022101022,
|
||||
1010221020002000,
|
||||
1022201000102010,
|
||||
0030300022222222,//34
|
||||
|
||||
#GOGOSTART
|
||||
1010201210102011,
|
||||
1010201210102011,
|
||||
5,
|
||||
000000000000000000000000000008000000000000000000,
|
||||
1010202210102011,
|
||||
1010202210102011,
|
||||
5,
|
||||
000000000000000000000000000008000000000000000000,
|
||||
1010201210102011,
|
||||
1010201210102011,
|
||||
5,
|
||||
000000000000000000000000000008000000000000000000,
|
||||
1010202210102011,
|
||||
1010202210102011,
|
||||
5,
|
||||
000000000000000000000000000000000000000008000000,//50
|
||||
|
||||
#GOGOEND
|
||||
11210121,
|
||||
0010200011112222,
|
||||
11210121,
|
||||
2222222211221121,
|
||||
1000100010011010,
|
||||
1000100010001011,
|
||||
1111,
|
||||
11221012,
|
||||
11101012,
|
||||
1000100010201022,
|
||||
1020102210001020,
|
||||
1010202011221122,
|
||||
1020102210201022,
|
||||
1020102210201022,
|
||||
1020102210201022,
|
||||
1121121110001022,
|
||||
100100102020200200100100100200200200100100100200,
|
||||
100100202020100100200200100100200200100100200200,
|
||||
1111211120201020,
|
||||
2002002022222222,
|
||||
10211020,
|
||||
2112,
|
||||
10211020,
|
||||
2112,
|
||||
10211020,
|
||||
2112,
|
||||
500000000000000000000000000008000000100000000000,
|
||||
1000000011111111,
|
||||
11211121,
|
||||
1010222010102220,
|
||||
11211121,
|
||||
1010222010102220,
|
||||
1220122011201120,
|
||||
100100100000500000000000000008000000300000000000,
|
||||
3,
|
||||
22020202,//86
|
||||
|
||||
#GOGOSTART
|
||||
1010201210102011,
|
||||
1010201210102011,
|
||||
1010001000102011,
|
||||
2020002022202220,
|
||||
1010202210102011,
|
||||
1010202210102011,
|
||||
1010201000102022,
|
||||
11210102,
|
||||
1010201210102011,
|
||||
1010201210102011,
|
||||
1010202000102011,
|
||||
2020002022202220,
|
||||
1010202210102011,
|
||||
1010202210102011,
|
||||
1010201010002022,
|
||||
1010201022112211,//102
|
||||
|
||||
#GOGOEND
|
||||
11010103,
|
||||
0010200011221222,
|
||||
11010103,
|
||||
0010201012221122,
|
||||
11010103,
|
||||
0010201011221221,
|
||||
10030303,
|
||||
|
||||
|
||||
#END
|
||||
|
||||
|
||||
COURSE:Hard
|
||||
LEVEL:6
|
||||
BALLOON:11,11,11,12,12
|
||||
|
||||
#START
|
||||
33,
|
||||
33,
|
||||
9009,
|
||||
08000000,
|
||||
44,
|
||||
44,
|
||||
9009,
|
||||
08000000,//8
|
||||
|
||||
#GOGOSTART
|
||||
10201120,
|
||||
11010202,
|
||||
10110220,
|
||||
11010202,
|
||||
10201120,
|
||||
11221225,
|
||||
,
|
||||
000000000000000000000000000000000000000000000008,//16
|
||||
|
||||
#GOGOEND
|
||||
,
|
||||
,
|
||||
00101001,
|
||||
10110100,
|
||||
00111001,
|
||||
10110100,
|
||||
11122211,
|
||||
12220000,
|
||||
10110101,
|
||||
01100000,
|
||||
10201121,
|
||||
10210020,
|
||||
10201121,
|
||||
10210120,
|
||||
30030030,
|
||||
03000000,
|
||||
6,
|
||||
000000000008000000000000000000000000000000000000,//34
|
||||
|
||||
#GOGOSTART
|
||||
1110202011102020,
|
||||
1110202011102020,
|
||||
5,
|
||||
000000000000000000000000000008000000000000000000,
|
||||
1010222010102220,
|
||||
1010222010102220,
|
||||
5,
|
||||
000000000000000000000000000008000000000000000000,
|
||||
1110202011102020,
|
||||
1110202011102020,
|
||||
5,
|
||||
000000000000000000000000000008000000000000000000,
|
||||
1010222010102220,
|
||||
1010222010102220,
|
||||
5,
|
||||
000000000000000000000000000000000000000000000008,//50
|
||||
|
||||
#GOGOEND
|
||||
00010101,
|
||||
,
|
||||
00010101,
|
||||
,
|
||||
1000000010010010,
|
||||
10001011,
|
||||
0110,
|
||||
22222022,
|
||||
11101022,
|
||||
00111122,
|
||||
11221011,
|
||||
500000000000000000000000000000000008000000000000,
|
||||
10101210,
|
||||
10101212,
|
||||
10101210,
|
||||
10101212,
|
||||
11221122,
|
||||
1110222011102220,
|
||||
9009,
|
||||
08000000,
|
||||
10011020,
|
||||
2112,
|
||||
1012,
|
||||
2112,
|
||||
1012,
|
||||
2112,
|
||||
500000000000000000000008000000000000100000000000,
|
||||
1000000011111000,
|
||||
500000000000000000000000000000000000000000000008,
|
||||
0112,
|
||||
5,
|
||||
000000000000000008000000000000000000100000100000,
|
||||
2220111022201110,
|
||||
200200200000500000000000000008000000300000000000,
|
||||
3,
|
||||
22020202,//86
|
||||
|
||||
#GOGOSTART
|
||||
1110202011102020,
|
||||
1110202011102020,
|
||||
6,
|
||||
000000000000000000000000000008000000000000000000,
|
||||
1010222010102220,
|
||||
1010222010102220,
|
||||
9009,
|
||||
08000000,
|
||||
1110202011102020,
|
||||
1110202011102020,
|
||||
6,
|
||||
000000000000000000000000000008000000000000000000,
|
||||
1010222010102220,
|
||||
1010222010102220,
|
||||
9009,
|
||||
08000000,//102
|
||||
|
||||
#GOGOEND
|
||||
11010103,
|
||||
01203000,
|
||||
11010103,
|
||||
01213000,
|
||||
11010103,
|
||||
01213000,
|
||||
30030303,
|
||||
,
|
||||
#END
|
||||
|
||||
COURSE:Normal
|
||||
LEVEL:3
|
||||
BALLOON:8,8,8,8,8,5,5,5
|
||||
|
||||
#START
|
||||
#SCROLL 0.8
|
||||
33,
|
||||
33,
|
||||
9009,
|
||||
08000000,
|
||||
44,
|
||||
44,
|
||||
9009,
|
||||
08000000,//8
|
||||
|
||||
#GOGOSTART
|
||||
1110,
|
||||
11,
|
||||
1110,
|
||||
11,
|
||||
1110,
|
||||
10001005,
|
||||
,
|
||||
000000000000000000000000000000000000000000000008,//16
|
||||
|
||||
#GOGOEND
|
||||
,
|
||||
,
|
||||
1210,
|
||||
11,
|
||||
1210,
|
||||
11,
|
||||
30030030,
|
||||
03000000,
|
||||
1111,
|
||||
1100,
|
||||
1210,
|
||||
1110,
|
||||
1210,
|
||||
1110,
|
||||
30030030,
|
||||
03000000,
|
||||
600000000000000000000000000000000000000000000008,
|
||||
,//34
|
||||
|
||||
#GOGOSTART
|
||||
1122,
|
||||
1122,
|
||||
5,
|
||||
000000000000000000000000000008000000000000000000,
|
||||
2211,
|
||||
2211,
|
||||
5,
|
||||
000000000000000000000000000008000000000000000000,
|
||||
1122,
|
||||
1122,
|
||||
5,
|
||||
000000000000000000000000000008000000000000000000,
|
||||
2211,
|
||||
2211,
|
||||
5,
|
||||
000000000000000000000000000000000000000000000008,//50
|
||||
|
||||
#GOGOEND
|
||||
00010101,
|
||||
,
|
||||
00010101,
|
||||
,
|
||||
1011,
|
||||
1011,
|
||||
11,
|
||||
2220,
|
||||
1110,
|
||||
1011,
|
||||
1011,
|
||||
500000000000000000000000000000000008000000000000,
|
||||
1110,
|
||||
2220,
|
||||
1111,
|
||||
2222,
|
||||
3333,
|
||||
3344,
|
||||
9009,
|
||||
08000000,
|
||||
11,
|
||||
0111,
|
||||
11,
|
||||
0111,
|
||||
11,
|
||||
0111,
|
||||
500000000000000000000008000000000000100000000000,
|
||||
11,
|
||||
500000000000000000000000000000000000000000000008,
|
||||
0111,
|
||||
5,
|
||||
000000000000000008000000000000000000100000000000,
|
||||
2121,
|
||||
2102,
|
||||
1,
|
||||
,//86
|
||||
|
||||
#GOGOSTART
|
||||
3344,
|
||||
3344,
|
||||
6,
|
||||
000000000000000000000000000008000000000000000000,
|
||||
4433,
|
||||
4433,
|
||||
9009,
|
||||
08000000,
|
||||
3344,
|
||||
3344,
|
||||
6,
|
||||
000000000000000000000000000008000000000000000000,
|
||||
4433,
|
||||
4433,
|
||||
9009,
|
||||
08000000,//102
|
||||
|
||||
#GOGOEND
|
||||
70000803,
|
||||
03,
|
||||
70000803,
|
||||
03,
|
||||
70000803,
|
||||
03,
|
||||
30030303,
|
||||
,
|
||||
#END
|
||||
|
||||
COURSE:Easy
|
||||
LEVEL:3
|
||||
BALLOON:5,5,6,6,6,3,3,3
|
||||
|
||||
#START
|
||||
#SCROLL 0.8
|
||||
33,
|
||||
33,
|
||||
9009,
|
||||
08000000,
|
||||
44,
|
||||
44,
|
||||
9009,
|
||||
08000000,//8
|
||||
|
||||
#GOGOSTART
|
||||
1,
|
||||
11,
|
||||
1,
|
||||
11,
|
||||
1,
|
||||
10001005,
|
||||
,
|
||||
000000000000000000000000000000000000000000000008,//16
|
||||
|
||||
#GOGOEND
|
||||
,
|
||||
,
|
||||
11,
|
||||
1,
|
||||
11,
|
||||
1,
|
||||
30030030,
|
||||
03000000,
|
||||
11,
|
||||
1100,
|
||||
12,
|
||||
1,
|
||||
12,
|
||||
1,
|
||||
30030030,
|
||||
03000000,
|
||||
600000000000000000000000000000000000000000000008,
|
||||
,//34
|
||||
|
||||
#GOGOSTART
|
||||
11,
|
||||
11,
|
||||
5,
|
||||
000000000000000000000000000008000000000000000000,
|
||||
22,
|
||||
22,
|
||||
5,
|
||||
000000000000000000000000000008000000000000000000,
|
||||
11,
|
||||
11,
|
||||
5,
|
||||
000000000000000000000000000008000000000000000000,
|
||||
22,
|
||||
22,
|
||||
5,
|
||||
000000000000000000000000000000000000000000000008,//50
|
||||
|
||||
#GOGOEND
|
||||
,
|
||||
,
|
||||
,
|
||||
,
|
||||
11,
|
||||
1110,
|
||||
11,
|
||||
1110,
|
||||
11,
|
||||
1011,
|
||||
11,
|
||||
500000000000000000000000000008000000000000000000,
|
||||
1110,
|
||||
2220,
|
||||
1110,
|
||||
2220,
|
||||
3333,
|
||||
3333,
|
||||
9009,
|
||||
08000000,
|
||||
11,
|
||||
0110,
|
||||
11,
|
||||
0110,
|
||||
11,
|
||||
0110,
|
||||
1001,
|
||||
11,
|
||||
500000000000000000000000000000000000000008000000,
|
||||
0111,
|
||||
5,
|
||||
000000000000000008000000000000000000000000000000,
|
||||
11,
|
||||
1101,
|
||||
1,
|
||||
,//86
|
||||
|
||||
#GOGOSTART
|
||||
33,
|
||||
33,
|
||||
6,
|
||||
000000000000000000000000000008000000000000000000,
|
||||
44,
|
||||
44,
|
||||
9009,
|
||||
08000000,
|
||||
33,
|
||||
33,
|
||||
6,
|
||||
000000000000000000000000000008000000000000000000,
|
||||
44,
|
||||
44,
|
||||
9009,
|
||||
08000000,//102
|
||||
|
||||
#GOGOEND
|
||||
70000803,
|
||||
,
|
||||
70000803,
|
||||
,
|
||||
70000803,
|
||||
,
|
||||
30030303,
|
||||
,
|
||||
#END
|
||||
Reference in New Issue
Block a user