tja
This commit is contained in:
438
tja/440.tja
Normal file
438
tja/440.tja
Normal file
@@ -0,0 +1,438 @@
|
||||
//TJADB Project
|
||||
TITLE:Uso-uso Doki
|
||||
TITLEJA:うそうそ時
|
||||
SUBTITLE:--Bana Inoue
|
||||
BPM:160
|
||||
WAVE:Uso-uso Doki.ogg
|
||||
OFFSET:-3.149
|
||||
DEMOSTART:73.633
|
||||
|
||||
COURSE:Oni
|
||||
LEVEL:8
|
||||
SCOREINIT:470
|
||||
SCOREDIFF:120
|
||||
|
||||
|
||||
#START
|
||||
|
||||
|
||||
,
|
||||
4040404011221122,
|
||||
|
||||
#GOGOSTART
|
||||
1200401200402211,
|
||||
2010201110201000,
|
||||
1200401200402211,
|
||||
2210201110203000,
|
||||
|
||||
#GOGOEND
|
||||
0000000000102210,
|
||||
1000100020000022,
|
||||
1020001020100022,
|
||||
1000100020000022,
|
||||
12012102,
|
||||
100000100100100100200000200000001000100020002000,
|
||||
1000100020002022,
|
||||
100200100000200020002000,
|
||||
1022101010202010,
|
||||
1000100020000022,
|
||||
1020001020112020,
|
||||
1000100020000022,
|
||||
1020001020112020,
|
||||
100100201010,
|
||||
202010100200,
|
||||
100000100100100100200000200000001000000010000000,
|
||||
100000000100200010202010,
|
||||
1000100020000022,
|
||||
0202020210100020,
|
||||
10102002,
|
||||
0010110212102011,
|
||||
100100201010,
|
||||
202010100200,
|
||||
100100201010,
|
||||
221111,
|
||||
1002201000201110,
|
||||
2000100000102220,
|
||||
1002201000201110,
|
||||
2000100000102222,
|
||||
100100202010,
|
||||
100000002000000020000000100000000200200000100000,
|
||||
1010201212112011,
|
||||
2101210122221122,
|
||||
1002201000100010,
|
||||
0010210212112101,
|
||||
2002102002102010,
|
||||
0010210211102210,
|
||||
1022203000300030,
|
||||
0010210212102211,
|
||||
1022103000300030,
|
||||
000000100000200000202010100000200000200200200200,
|
||||
|
||||
#GOGOSTART
|
||||
1012012010102202,
|
||||
1012012010112202,
|
||||
1012012010102202,
|
||||
1121021010221202,
|
||||
1201201010102202,
|
||||
1012012010112202,
|
||||
1012012010102202,
|
||||
1022102210221222,
|
||||
1222102211210222,
|
||||
1112012010102202,
|
||||
1112012010111202,
|
||||
1121021010221202,
|
||||
1201201010102202,
|
||||
1112012010111202,
|
||||
1122012010102202,
|
||||
1022102210221222,
|
||||
|
||||
#GOGOEND
|
||||
1012012030003000,
|
||||
1122012030003000,
|
||||
1112012030003000,
|
||||
1221021010221022,
|
||||
100000003000000030000000200200100100200000000000,
|
||||
1012012030003000,
|
||||
1112012030003000,
|
||||
2022112211221222,
|
||||
|
||||
#GOGOSTART
|
||||
1002100210021002,
|
||||
1002112030003000,
|
||||
1002102030003000,
|
||||
1021021210221202,
|
||||
1210201030003000,
|
||||
1002112030003000,
|
||||
100000000200100100200000500000000000000008000000,
|
||||
|
||||
#GOGOEND
|
||||
#BPMCHANGE 154
|
||||
#SCROLL 1.03896103896
|
||||
2122,
|
||||
1,
|
||||
|
||||
|
||||
#END
|
||||
|
||||
|
||||
COURSE:Hard
|
||||
LEVEL:7
|
||||
SCOREINIT:590
|
||||
SCOREDIFF:165
|
||||
|
||||
|
||||
#START
|
||||
|
||||
|
||||
,
|
||||
4040404011101110,
|
||||
|
||||
#GOGOSTART
|
||||
1100401100401110,
|
||||
11211210,
|
||||
1100401100401110,
|
||||
11211230,
|
||||
|
||||
#GOGOEND
|
||||
00000102,
|
||||
10102001,
|
||||
02012102,
|
||||
10102001,
|
||||
02012000,
|
||||
100100201010,
|
||||
1022,
|
||||
100100201010,
|
||||
10012000,
|
||||
10102001,
|
||||
01012010,
|
||||
10102001,
|
||||
01012010,
|
||||
100100201010,
|
||||
1012,
|
||||
100100201010,
|
||||
100000000100200010001000,
|
||||
10102001,
|
||||
01012020,
|
||||
10102001,
|
||||
01012020,
|
||||
100100201010,
|
||||
201010100100,
|
||||
100100201010,
|
||||
211111,
|
||||
10210200,
|
||||
10200200,
|
||||
10210200,
|
||||
10200200,
|
||||
100100201010,
|
||||
201010100100,
|
||||
100100201010,
|
||||
500000000000000000000008000000000000000000000000,
|
||||
10210101,
|
||||
01201220,
|
||||
10210101,
|
||||
01202020,
|
||||
10230303,
|
||||
01201220,
|
||||
30030306,
|
||||
000000000000000000000000000000000008000000000000,
|
||||
|
||||
#GOGOSTART
|
||||
1000201110002000,
|
||||
1000201110002000,
|
||||
1000201110102000,
|
||||
1011101110201020,
|
||||
1000201110002000,
|
||||
1000201110002000,
|
||||
1000201110102000,
|
||||
1011101110111110,
|
||||
1110201110202000,
|
||||
1000201110002000,
|
||||
1000201110002000,
|
||||
1011101110201020,
|
||||
1000201110002000,
|
||||
1000201110002000,
|
||||
1000201110102000,
|
||||
1011101110111110,
|
||||
|
||||
#GOGOEND
|
||||
6,
|
||||
000000000000000000000000000000000008000000000000,
|
||||
,
|
||||
,
|
||||
303030400400,
|
||||
1002001030003000,
|
||||
1002001030003000,
|
||||
1011101110111110,
|
||||
|
||||
#GOGOSTART
|
||||
1000201110002000,
|
||||
1000201110002000,
|
||||
1000201110102000,
|
||||
1011101110222000,
|
||||
1000201110002000,
|
||||
1000201110002000,
|
||||
1000201110000000,
|
||||
|
||||
#GOGOEND
|
||||
#BPMCHANGE 154
|
||||
#SCROLL 1.03896103896
|
||||
1122,
|
||||
1,
|
||||
|
||||
|
||||
#END
|
||||
|
||||
|
||||
COURSE:Normal
|
||||
LEVEL:5
|
||||
BALLOON:15
|
||||
SCOREINIT:680
|
||||
SCOREDIFF:203
|
||||
|
||||
|
||||
#START
|
||||
|
||||
|
||||
,
|
||||
,
|
||||
|
||||
#GOGOSTART
|
||||
10010010,
|
||||
01001210,
|
||||
10010010,
|
||||
01001230,
|
||||
|
||||
#GOGOEND
|
||||
,
|
||||
1120,
|
||||
01011000,
|
||||
1120,
|
||||
01011000,
|
||||
1120,
|
||||
1022,
|
||||
1120,
|
||||
10011000,
|
||||
10102001,
|
||||
01011000,
|
||||
10102001,
|
||||
01011000,
|
||||
1120,
|
||||
1022,
|
||||
1120,
|
||||
12,
|
||||
10102001,
|
||||
01022000,
|
||||
10102001,
|
||||
01022000,
|
||||
1120,
|
||||
500000000000000000000008000000000000000000000000,
|
||||
1120,
|
||||
500000000000000000000008000000000000000000000000,
|
||||
10010100,
|
||||
20100100,
|
||||
10010100,
|
||||
20100100,
|
||||
1120,
|
||||
500000000000000000000008000000000000000000000000,
|
||||
1120,
|
||||
500000000000000000000008000000000000000000000000,
|
||||
10010101,
|
||||
0022,
|
||||
10010101,
|
||||
0222,
|
||||
10030303,
|
||||
00202220,
|
||||
30030306,
|
||||
00000000000000000000000000000000000800000000000,
|
||||
|
||||
#GOGOSTART
|
||||
10111020,
|
||||
10111020,
|
||||
10111020,
|
||||
11111000,
|
||||
10111020,
|
||||
10111020,
|
||||
10111000,
|
||||
3344,
|
||||
10211020,
|
||||
10211020,
|
||||
10211020,
|
||||
11111000,
|
||||
10211020,
|
||||
10211020,
|
||||
10211000,
|
||||
3344,
|
||||
|
||||
#GOGOEND
|
||||
7,
|
||||
,
|
||||
8,
|
||||
,
|
||||
101010200200,
|
||||
1011,
|
||||
1011,
|
||||
3344,
|
||||
|
||||
#GOGOSTART
|
||||
30211020,
|
||||
10211000,
|
||||
10211020,
|
||||
11111000,
|
||||
10211020,
|
||||
10211000,
|
||||
10211000,
|
||||
|
||||
#GOGOEND
|
||||
#BPMCHANGE 154
|
||||
#SCROLL 1.03896103896
|
||||
|
||||
|
||||
#END
|
||||
|
||||
|
||||
COURSE:Easy
|
||||
LEVEL:4
|
||||
BALLOON:12,3
|
||||
SCOREINIT:560
|
||||
SCOREDIFF:180
|
||||
|
||||
|
||||
#START
|
||||
|
||||
|
||||
,
|
||||
,
|
||||
|
||||
#GOGOSTART
|
||||
10010010,
|
||||
01001000,
|
||||
10010010,
|
||||
01001030,
|
||||
|
||||
#GOGOEND
|
||||
,
|
||||
1120,
|
||||
12,
|
||||
1120,
|
||||
1021,
|
||||
12,
|
||||
1022,
|
||||
12,
|
||||
1,
|
||||
1120,
|
||||
12,
|
||||
1120,
|
||||
1021,
|
||||
12,
|
||||
1022,
|
||||
12,
|
||||
1,
|
||||
1120,
|
||||
12,
|
||||
1120,
|
||||
12,
|
||||
12,
|
||||
500000000000000000000008000000000000000000000000,
|
||||
1120,
|
||||
500000000000000000000008000000000000000000000000,
|
||||
10010000,
|
||||
10100100,
|
||||
10010000,
|
||||
10100100,
|
||||
12,
|
||||
500000000000000000000008000000000000000000000000,
|
||||
12,
|
||||
500000000000000000000008000000000000000000000000,
|
||||
10010101,
|
||||
0202,
|
||||
10010101,
|
||||
0202,
|
||||
10030303,
|
||||
0202,
|
||||
30030306,
|
||||
000000000000000000000000000000000008000000000000,
|
||||
|
||||
#GOGOSTART
|
||||
1110,
|
||||
1110,
|
||||
1122,
|
||||
1110,
|
||||
1110,
|
||||
1110,
|
||||
1120,
|
||||
3344,
|
||||
1110,
|
||||
1110,
|
||||
1120,
|
||||
2220,
|
||||
1110,
|
||||
1110,
|
||||
1120,
|
||||
3344,
|
||||
|
||||
#GOGOEND
|
||||
9,
|
||||
,
|
||||
8,
|
||||
,
|
||||
78,
|
||||
11,
|
||||
11,
|
||||
3344,
|
||||
|
||||
#GOGOSTART
|
||||
3210,
|
||||
1210,
|
||||
1210,
|
||||
2220,
|
||||
1210,
|
||||
1210,
|
||||
1210,
|
||||
|
||||
#GOGOEND
|
||||
#BPMCHANGE 154
|
||||
#SCROLL 1.03896103896
|
||||
|
||||
|
||||
#END
|
||||
|
||||
Reference in New Issue
Block a user