tja
This commit is contained in:
373
tja/445.tja
Normal file
373
tja/445.tja
Normal file
@@ -0,0 +1,373 @@
|
||||
//TJADB Project
|
||||
TITLE:Oresama Pirates
|
||||
TITLEJA:オレサマパイレーツ
|
||||
SUBTITLE:--Masako Oogami & Yuuji Masubuchi
|
||||
BPM:148
|
||||
WAVE:Oresama Pirates.ogg
|
||||
OFFSET:-1.857
|
||||
DEMOSTART:8.335
|
||||
|
||||
COURSE:Oni
|
||||
LEVEL:8
|
||||
BALLOON:3,3,3,3,17
|
||||
SCOREINIT:480
|
||||
SCOREDIFF:115
|
||||
|
||||
|
||||
#START
|
||||
|
||||
|
||||
101010111010100000200000,
|
||||
101010111010100000200000,
|
||||
101010111010101010111010,
|
||||
4433,
|
||||
101121102101,
|
||||
101211101201,
|
||||
101121102101,
|
||||
121202121211,
|
||||
101121102101,
|
||||
101211101200,
|
||||
111211212111,
|
||||
100011101010100011101010,
|
||||
100011101010201010201010,
|
||||
100022201010100022201010,
|
||||
100022201010201010201010,
|
||||
100222202020,
|
||||
202020202220,
|
||||
220222200202,
|
||||
120101200400,
|
||||
200222202020,
|
||||
202020202220,
|
||||
220222200200,//22
|
||||
|
||||
#GOGOSTART
|
||||
101010102020100022200020,
|
||||
101010102020100022200020,
|
||||
111000300020111000300020,
|
||||
500000000000000000000000000000000008000000000000,
|
||||
101010102010200022200020,
|
||||
101010100000222222200011,//28
|
||||
|
||||
#GOGOEND
|
||||
100000000708,
|
||||
000000000708,
|
||||
000708000708,
|
||||
4433,
|
||||
101121102101,
|
||||
101211101201,
|
||||
101121102101,
|
||||
121202121211,
|
||||
101121102101,
|
||||
101211101200,
|
||||
101010201010201020102222,
|
||||
200020202020200022002200,
|
||||
220022002200220020202020,
|
||||
200020202020200022002200,
|
||||
120101200400,
|
||||
200020202020200022002200,
|
||||
220022002200222022202220,
|
||||
200020202020200022202020,//46
|
||||
|
||||
#GOGOSTART
|
||||
111103030301,
|
||||
101010100010101010101111,
|
||||
111101110301,
|
||||
101010100010101010101111,
|
||||
111103030301,
|
||||
101010100010101010101111,
|
||||
111101110301,
|
||||
111101111100,
|
||||
101011100010102010102020,
|
||||
101011100010102010100020,
|
||||
101011100010102010102020,
|
||||
101011100010102010100010,
|
||||
102000100010200022200000,
|
||||
600000000000000000000000000000000008000000000000,//60
|
||||
|
||||
#GOGOEND
|
||||
300011200000300011200000,
|
||||
300011200000201010201010,
|
||||
101011200010101011200010,
|
||||
101011200000201010201010,
|
||||
101011200010101011200010,
|
||||
101011200000201010201010,
|
||||
102011201010102011201010,
|
||||
102011201010201010201010,
|
||||
112122112122,
|
||||
111110202020111110202020,
|
||||
7008,
|
||||
#SCROLL 2
|
||||
333300000000,
|
||||
|
||||
|
||||
#END
|
||||
|
||||
|
||||
COURSE:Hard
|
||||
LEVEL:6
|
||||
BALLOON:30,20
|
||||
|
||||
#START
|
||||
111111100000,
|
||||
111111100000,
|
||||
111100111100,
|
||||
600000000000000000000000000000000008000000000000,
|
||||
101101101100,
|
||||
101101102200,
|
||||
101101101100,
|
||||
500000000000000000000000000000000008000000000000,
|
||||
101101101100,
|
||||
101101102200,
|
||||
111111100300,
|
||||
301100301100,
|
||||
301100200200,
|
||||
301100301100,
|
||||
301100200200,
|
||||
200222,
|
||||
222200,
|
||||
220202200000,
|
||||
110101100000,
|
||||
200222,
|
||||
222200,
|
||||
220202200000,//22
|
||||
|
||||
#GOGOSTART
|
||||
111100100000,
|
||||
111100100000,
|
||||
110400110400,
|
||||
500000000000000000000000000000000008000000000000,
|
||||
111100100000,
|
||||
111100222200,//28
|
||||
|
||||
#GOGOEND
|
||||
9,
|
||||
,
|
||||
0900,
|
||||
8,
|
||||
101101101100,
|
||||
101101101200,
|
||||
101101101100,
|
||||
500000000000000000000000000000000008000000000000,
|
||||
101101101100,
|
||||
101101101200,
|
||||
111111100300,
|
||||
400222,
|
||||
222200,
|
||||
202222200000,
|
||||
110101100000,
|
||||
200222,
|
||||
222200,
|
||||
202220200000,//46
|
||||
|
||||
#GOGOSTART
|
||||
111100111100,
|
||||
111100300000,
|
||||
111100111100,
|
||||
500000000000000000000000000000000008000000000000,
|
||||
111100111100,
|
||||
111100300000,
|
||||
111100111100,
|
||||
500000000000000000000000000000000008000000000000,
|
||||
111100222200,
|
||||
111100300000,
|
||||
111100222200,
|
||||
111100300000,
|
||||
110101100400,
|
||||
600000000000000000000000000000000008000000000000,//60
|
||||
|
||||
#GOGOEND
|
||||
301100301100,
|
||||
301100300300,
|
||||
301100301100,
|
||||
301100300300,
|
||||
301200301200,
|
||||
301200222200,
|
||||
3434,
|
||||
300400111100,
|
||||
9,
|
||||
09,
|
||||
8,
|
||||
#SCROLL 2
|
||||
333300000000,
|
||||
,
|
||||
#END
|
||||
|
||||
COURSE:Normal
|
||||
LEVEL:5
|
||||
BALLOON:5,26,5,16
|
||||
|
||||
#START
|
||||
3330,
|
||||
3330,
|
||||
33,
|
||||
600000000000000000000000000000000008000000000000,
|
||||
1130,
|
||||
1130,
|
||||
1130,
|
||||
33,
|
||||
1130,
|
||||
500000000000000000000000000000000008000000000000,
|
||||
1110,
|
||||
3434,
|
||||
3433,
|
||||
3434,
|
||||
3433,
|
||||
22,
|
||||
2222,
|
||||
2220,
|
||||
7008,
|
||||
22,
|
||||
2222,
|
||||
2220,//22
|
||||
|
||||
#GOGOSTART
|
||||
111100000000,
|
||||
111100000000,
|
||||
111100100000,
|
||||
500000000000000000000000000000000008000000000000,
|
||||
222200000000,
|
||||
222200200000,//28
|
||||
|
||||
#GOGOEND
|
||||
9,
|
||||
,
|
||||
0900,
|
||||
8,
|
||||
1130,
|
||||
1130,
|
||||
1130,
|
||||
3330,
|
||||
1130,
|
||||
500000000000000000000000000000000008000000000000,
|
||||
1112,
|
||||
22,
|
||||
2222,
|
||||
2220,
|
||||
7008,
|
||||
22,
|
||||
2222,
|
||||
2220,//46
|
||||
|
||||
#GOGOSTART
|
||||
111100000000,
|
||||
111100100000,
|
||||
111100000000,
|
||||
111100100000,
|
||||
111100000000,
|
||||
111100100000,
|
||||
111100000000,
|
||||
111100100000,
|
||||
111100000100,
|
||||
111100100000,
|
||||
111100000100,
|
||||
111000100000,
|
||||
3330,
|
||||
600000000000000000000000000000000008000000000000,//60
|
||||
|
||||
#GOGOEND
|
||||
3434,
|
||||
3400,
|
||||
3434,
|
||||
3400,
|
||||
3434,
|
||||
3444,
|
||||
3434,
|
||||
3433,
|
||||
9,
|
||||
09,
|
||||
8,
|
||||
#SCROLL 2
|
||||
3300,
|
||||
,
|
||||
#END
|
||||
|
||||
COURSE:Easy
|
||||
LEVEL:3
|
||||
BALLOON:4,22,4,12
|
||||
SCOREINIT:390
|
||||
SCOREDIFF:110
|
||||
|
||||
#START
|
||||
3003,
|
||||
3003,
|
||||
33,
|
||||
600000000000000000000000000008000000000000000000,
|
||||
1110,
|
||||
1110,
|
||||
1110,
|
||||
1120,
|
||||
1110,
|
||||
500000000000000000000000000008000000000000000000,
|
||||
1110,
|
||||
3434,
|
||||
3400,
|
||||
3434,
|
||||
3400,
|
||||
22,
|
||||
2220,
|
||||
22,
|
||||
7008,
|
||||
22,
|
||||
2220,
|
||||
22,//22
|
||||
|
||||
#GOGOSTART
|
||||
12,
|
||||
12,
|
||||
1110,
|
||||
500000000000000000000000000008000000000000000000,
|
||||
12,
|
||||
12,//28
|
||||
|
||||
#GOGOEND
|
||||
9,
|
||||
,
|
||||
0900,
|
||||
8,
|
||||
1110,
|
||||
1110,
|
||||
1110,
|
||||
1120,
|
||||
1110,
|
||||
50000800,
|
||||
1112,
|
||||
22,
|
||||
2220,
|
||||
22,
|
||||
7008,
|
||||
22,
|
||||
2220,
|
||||
22,//46
|
||||
|
||||
#GOGOSTART
|
||||
1110,
|
||||
1120,
|
||||
1110,
|
||||
1122,
|
||||
1110,
|
||||
1120,
|
||||
1110,
|
||||
1122,
|
||||
3330,
|
||||
3340,
|
||||
3330,
|
||||
3344,
|
||||
33,
|
||||
600000000000000000000000000008000000000000000000,//60
|
||||
|
||||
#GOGOEND
|
||||
3434,
|
||||
3400,
|
||||
3434,
|
||||
3400,
|
||||
3434,
|
||||
3444,
|
||||
3434,
|
||||
3444,
|
||||
9,
|
||||
09,
|
||||
8,
|
||||
#SCROLL 2
|
||||
3300,
|
||||
,
|
||||
#END
|
||||
Reference in New Issue
Block a user