tja
This commit is contained in:
620
tja/45.tja
Normal file
620
tja/45.tja
Normal file
@@ -0,0 +1,620 @@
|
||||
//TJADB Project
|
||||
TITLE:Ao no Senritsu
|
||||
TITLEJA:蒼の旋律
|
||||
SUBTITLE:--AILE feat. Sariyajin
|
||||
BPM:196
|
||||
WAVE:Ao no Senritsu.ogg
|
||||
OFFSET:-1.534
|
||||
DEMOSTART:46.510
|
||||
|
||||
COURSE:Edit
|
||||
LEVEL:10
|
||||
SCOREINIT:340
|
||||
SCOREDIFF:80
|
||||
|
||||
|
||||
#START
|
||||
|
||||
|
||||
33000000,
|
||||
33000000,
|
||||
33000000,
|
||||
33030030,
|
||||
33000000,
|
||||
33000000,
|
||||
33000000,
|
||||
3030003000002220,
|
||||
1010222010102220,
|
||||
1010222010102221,
|
||||
1010222010102220,
|
||||
1010222010102221,
|
||||
1010202210102022,
|
||||
1010202210102022,
|
||||
1111211121112111,
|
||||
2111212121112222,
|
||||
,
|
||||
3000201000102021,
|
||||
1000201000102021,
|
||||
1000201000102021,
|
||||
1110102010102022,
|
||||
1000201000102021,
|
||||
1000201000102021,
|
||||
1110201010102010,
|
||||
1110201020101120,
|
||||
1000102210100022,
|
||||
1010002210101220,
|
||||
1000102210100022,
|
||||
1010002210101220,
|
||||
30030000,
|
||||
3000003000002222,
|
||||
1010202210102022,
|
||||
1010202210102222,
|
||||
1010221010222010,
|
||||
1010221010222010,
|
||||
2111211121112111,
|
||||
1001004030000000,//37
|
||||
|
||||
#GOGOSTART
|
||||
1010202210102022,
|
||||
1010202210102222,
|
||||
1010202210102022,
|
||||
1010202210101111,
|
||||
1010202210202121,
|
||||
1010202210102222,
|
||||
1120112010102222,
|
||||
1111111120201122,
|
||||
1010201211202021,
|
||||
1010202210102222,
|
||||
1010202210102022,
|
||||
1010222010201122,
|
||||
1010201211202021,
|
||||
1010202210102222,
|
||||
1120112010102222,
|
||||
1111111110102222,
|
||||
1010202210102022,
|
||||
1010202211201120,
|
||||
1010202210102022,
|
||||
1010222010101212,
|
||||
1010201010202121,
|
||||
1010202210102222,
|
||||
1120112011112220,
|
||||
3003003022221000,
|
||||
1120112010102220,
|
||||
1010202210101122,
|
||||
1120112010102220,
|
||||
1010222021111120,
|
||||
1120112010102220,
|
||||
1010222010102222,
|
||||
1120112010102222,
|
||||
1120111101211220,
|
||||
1120112010102012,
|
||||
1010001210102221,
|
||||
1120112010201012,
|
||||
1010001210112221,
|
||||
1010201210102222,
|
||||
1010201210102222,
|
||||
1120112010102222,
|
||||
1111111120201122,
|
||||
1010201210102022,
|
||||
1010202211201112,
|
||||
1010201210102022,
|
||||
1010202211201112,
|
||||
1010201210102012,
|
||||
1010201210102222,
|
||||
1120112012112212,
|
||||
2112211122221000,//85
|
||||
|
||||
#GOGOEND
|
||||
3000201000102021,
|
||||
1000201000102021,
|
||||
1000201000102021,
|
||||
1110102010102022,
|
||||
1000201000102021,
|
||||
1000201000102021,
|
||||
1110201010102010,
|
||||
1110201020102222,
|
||||
1000201000102021,
|
||||
1000201000102021,
|
||||
1000201000102021,
|
||||
2220102010102022,
|
||||
1000201000102021,
|
||||
1000201000102021,
|
||||
1110201010102010,
|
||||
1210201020101111,
|
||||
1210201020102222,
|
||||
1210201020101122,
|
||||
,
|
||||
3,
|
||||
|
||||
|
||||
#END
|
||||
|
||||
|
||||
COURSE:Oni
|
||||
LEVEL:9
|
||||
SCOREINIT:250
|
||||
SCOREDIFF:80
|
||||
|
||||
|
||||
#START
|
||||
|
||||
|
||||
33000000,
|
||||
33000000,
|
||||
33000000,
|
||||
33030030,
|
||||
33000000,
|
||||
33000000,
|
||||
33000000,
|
||||
3030003000001110,
|
||||
1010001110102010,
|
||||
1010001110102010,
|
||||
1010001110102010,
|
||||
1010001110102010,
|
||||
1010201110102010,
|
||||
1010201110102010,
|
||||
1110111011101110,
|
||||
1111111111111111,
|
||||
,
|
||||
1110201000112010,
|
||||
1110201022102020,
|
||||
1110201000112010,
|
||||
1110201022112020,
|
||||
1110201000112010,
|
||||
1110201022102020,
|
||||
1110201011102010,
|
||||
3030303000221111,
|
||||
1010201000102010,
|
||||
0010201120102000,
|
||||
1010201000102010,
|
||||
0010201120102000,
|
||||
3000003000001110,
|
||||
3000003000001110,
|
||||
1010201020102011,
|
||||
1010201020102011,
|
||||
1020201010202011,
|
||||
1020201010202011,
|
||||
2211221122112210,
|
||||
3003003030000000,//37
|
||||
|
||||
#GOGOSTART
|
||||
1110201110202010,
|
||||
1110201110201120,
|
||||
1110201110202010,
|
||||
1110201110202000,
|
||||
1110201020102210,
|
||||
1110201020102210,
|
||||
3000303000400030,
|
||||
3030303011111111,
|
||||
1010221010222010,
|
||||
1010221020112010,
|
||||
1010221010222010,
|
||||
1010221022112000,
|
||||
1110201020102210,
|
||||
1110201020102210,
|
||||
1110221011102210,
|
||||
1120112011111111,
|
||||
1101202010202010,
|
||||
1101201010202000,
|
||||
1101202010202010,
|
||||
1101201010202000,
|
||||
1110201102112010,
|
||||
1110201102112010,
|
||||
1111111011111110,
|
||||
3003003030004000,
|
||||
1110201110202010,
|
||||
1110201110201120,
|
||||
1110201110202010,
|
||||
1110201110201120,
|
||||
1120201120201020,
|
||||
1120201120201020,
|
||||
3000303000400030,
|
||||
3030303011111111,
|
||||
1010221010222010,
|
||||
1010221020112010,
|
||||
1010221010222010,
|
||||
1010221022112000,
|
||||
1110201020102210,
|
||||
1110201020102210,
|
||||
1110221011102210,
|
||||
1120112011111111,
|
||||
1101202010202010,
|
||||
1101202010202010,
|
||||
1102112010202010,
|
||||
1102112010202010,
|
||||
1020201111201120,
|
||||
1020201111201120,
|
||||
1110111011101110,
|
||||
1111111111111000,//85
|
||||
|
||||
#GOGOEND
|
||||
1110201000112010,
|
||||
1110201022102020,
|
||||
1110201000112010,
|
||||
1110201022112020,
|
||||
1110201000112010,
|
||||
1110201022102020,
|
||||
1110201011102010,
|
||||
3030303000221111,
|
||||
1110201000112010,
|
||||
1110201022102020,
|
||||
1110201000112010,
|
||||
1110201022112020,
|
||||
1110201000112010,
|
||||
1110201022102020,
|
||||
1110201011102010,
|
||||
3030303000211110,
|
||||
3030303000212110,
|
||||
3030303000212120,
|
||||
,
|
||||
3,
|
||||
|
||||
|
||||
#END
|
||||
|
||||
|
||||
COURSE:Hard
|
||||
LEVEL:7
|
||||
BALLOON:16,30,7
|
||||
SCOREINIT:480
|
||||
SCOREDIFF:110
|
||||
|
||||
#START
|
||||
33000000,
|
||||
33000000,
|
||||
33000000,
|
||||
600000000000000000000008000000000000000000000000,
|
||||
33000000,
|
||||
33000000,
|
||||
33000000,
|
||||
600000000000000000000008000000000000000000000000,
|
||||
1111,
|
||||
1111,
|
||||
11101110,
|
||||
11101110,
|
||||
500000000000000000000000000008000000000000000000,
|
||||
600000000000000000000000000008000000000000000000,
|
||||
7,
|
||||
0008,
|
||||
,
|
||||
11210121,
|
||||
01212120,
|
||||
11210121,
|
||||
01212120,
|
||||
11210121,
|
||||
01212120,
|
||||
11211121,
|
||||
500000000000000000000000000008000000000000000000,
|
||||
10201121,
|
||||
0222,
|
||||
10201121,
|
||||
0222,
|
||||
30030000,
|
||||
30030000,
|
||||
10201120,
|
||||
10201120,
|
||||
1000200011102000,
|
||||
1000200011102000,
|
||||
11111111,
|
||||
3003003030000000,//37
|
||||
|
||||
#GOGOSTART
|
||||
11210121,
|
||||
0010200011102000,
|
||||
11210121,
|
||||
0010200011102000,
|
||||
10220220,
|
||||
10220220,
|
||||
10210105,
|
||||
000000000000000000000008000000000000000000000000,
|
||||
10201120,
|
||||
10210120,
|
||||
10201120,
|
||||
10210120,
|
||||
1000200011102000,
|
||||
1000200011102000,
|
||||
1110200011102000,
|
||||
30030300,
|
||||
30220220,
|
||||
10201220,
|
||||
30220220,
|
||||
10201220,
|
||||
30210220,
|
||||
30210220,
|
||||
600000000000000000000000000008000000000000000000,
|
||||
3003003030000000,
|
||||
11210121,
|
||||
0010200011102000,
|
||||
11210121,
|
||||
0010200011102000,
|
||||
11210121,
|
||||
0010200022202000,
|
||||
10210105,
|
||||
000000000000000000000008000000000000000000000000,
|
||||
10201120,
|
||||
10210120,
|
||||
10201120,
|
||||
10210120,
|
||||
1000200011102000,
|
||||
1000200011102000,
|
||||
30330306,
|
||||
000000000000000000000000000008000000000000000000,
|
||||
1010200011102000,
|
||||
1010200011102000,
|
||||
1020200011102000,
|
||||
1020200011102000,
|
||||
7,
|
||||
,
|
||||
,
|
||||
08,//85
|
||||
|
||||
#GOGOEND
|
||||
11210121,
|
||||
01212120,
|
||||
11210121,
|
||||
01212120,
|
||||
11210121,
|
||||
01212120,
|
||||
11211121,
|
||||
500000000000000000000000000008000000000000000000,
|
||||
11210121,
|
||||
11212121,
|
||||
11210121,
|
||||
11212121,
|
||||
11210121,
|
||||
11212121,
|
||||
11210121,
|
||||
500000000000000000000000000008000000000000000000,
|
||||
600000000000000000000000000008000000000000000000,
|
||||
7008,
|
||||
,
|
||||
3,
|
||||
,
|
||||
,
|
||||
,
|
||||
,
|
||||
#END
|
||||
|
||||
COURSE:Normal
|
||||
LEVEL:6
|
||||
BALLOON:10,18,24,5
|
||||
SCOREINIT:680
|
||||
SCOREDIFF:170
|
||||
|
||||
#START
|
||||
3,
|
||||
3,
|
||||
3,
|
||||
600000000000000000000008000000000000000000000000,
|
||||
3,
|
||||
3,
|
||||
3,
|
||||
600000000000000000000008000000000000000000000000,
|
||||
11,
|
||||
11,
|
||||
1110,
|
||||
1110,
|
||||
500000000000000000000000000008000000000000000000,
|
||||
600000000000000000000000000008000000000000000000,
|
||||
7,
|
||||
0008,
|
||||
,
|
||||
1110,
|
||||
11101000,
|
||||
1110,
|
||||
1,
|
||||
1110,
|
||||
11101000,
|
||||
1110,
|
||||
1,
|
||||
12,
|
||||
1222,
|
||||
12,
|
||||
1,
|
||||
3,
|
||||
3,
|
||||
11,
|
||||
1110,
|
||||
9,
|
||||
,
|
||||
0900,
|
||||
8,//37
|
||||
|
||||
#GOGOSTART
|
||||
11101000,
|
||||
1120,
|
||||
11101000,
|
||||
1120,
|
||||
11101000,
|
||||
11101000,
|
||||
30303006,
|
||||
000000000000000000000008000000000000000000000000,
|
||||
1112,
|
||||
1110,
|
||||
1121,
|
||||
12,
|
||||
1112,
|
||||
1110,
|
||||
1121,
|
||||
12,
|
||||
33,
|
||||
1110,
|
||||
33,
|
||||
1110,
|
||||
3,
|
||||
33,
|
||||
600000000000000000000000000008000000000000000000,
|
||||
3,
|
||||
11101000,
|
||||
1122,
|
||||
11101000,
|
||||
1122,
|
||||
11101000,
|
||||
11101000,
|
||||
30303006,
|
||||
000000000000000000000008000000000000000000000000,
|
||||
1112,
|
||||
1110,
|
||||
10102005,
|
||||
000000000000000000000008000000000000000000000000,
|
||||
1112,
|
||||
1110,
|
||||
10102005,
|
||||
000000000000000000000008000000000000000000000000,
|
||||
1112,
|
||||
1112,
|
||||
10101110,
|
||||
10101110,
|
||||
7,
|
||||
,
|
||||
,
|
||||
08,//85
|
||||
|
||||
#GOGOEND
|
||||
1110,
|
||||
1122,
|
||||
1110,
|
||||
1122,
|
||||
1110,
|
||||
2220,
|
||||
3330,
|
||||
500000000000000000000000000008000000000000000000,
|
||||
1110,
|
||||
1122,
|
||||
1110,
|
||||
1122,
|
||||
1110,
|
||||
2220,
|
||||
3330,
|
||||
500000000000000000000000000008000000000000000000,
|
||||
600000000000000000000000000008000000000000000000,
|
||||
7008,
|
||||
,
|
||||
3,
|
||||
,
|
||||
,
|
||||
,
|
||||
,
|
||||
#END
|
||||
|
||||
COURSE:Easy
|
||||
LEVEL:4
|
||||
BALLOON:8,15,20,4
|
||||
SCOREINIT:560
|
||||
SCOREDIFF:130
|
||||
|
||||
#START
|
||||
3,
|
||||
3,
|
||||
3,
|
||||
600000000000000000000008000000000000000000000000,
|
||||
3,
|
||||
3,
|
||||
3,
|
||||
600000000000000000000008000000000000000000000000,
|
||||
11,
|
||||
11,
|
||||
11,
|
||||
11,
|
||||
500000000000000000000000000008000000000000000000,
|
||||
600000000000000000000000000008000000000000000000,
|
||||
7,
|
||||
0008,
|
||||
,
|
||||
11,
|
||||
1110,
|
||||
12,
|
||||
1,
|
||||
11,
|
||||
1110,
|
||||
12,
|
||||
1,
|
||||
12,
|
||||
1,
|
||||
12,
|
||||
1,
|
||||
3,
|
||||
3,
|
||||
11,
|
||||
1110,
|
||||
9,
|
||||
,
|
||||
0900,
|
||||
8,//37
|
||||
|
||||
#GOGOSTART
|
||||
1110,
|
||||
12,
|
||||
1110,
|
||||
12,
|
||||
1110,
|
||||
1110,
|
||||
30303006,
|
||||
000000000000000000000008000000000000000000000000,
|
||||
12,
|
||||
1110,
|
||||
12,
|
||||
1,
|
||||
12,
|
||||
1110,
|
||||
12,
|
||||
1,
|
||||
3,
|
||||
1110,
|
||||
3,
|
||||
1110,
|
||||
3,
|
||||
33,
|
||||
600000000000000000000000000008000000000000000000,
|
||||
3,
|
||||
1110,
|
||||
12,
|
||||
1110,
|
||||
12,
|
||||
1110,
|
||||
1110,
|
||||
30303006,
|
||||
000000000000000000000008000000000000000000000000,
|
||||
12,
|
||||
1110,
|
||||
10101005,
|
||||
000000000000000000000008000000000000000000000000,
|
||||
12,
|
||||
1110,
|
||||
10101005,
|
||||
000000000000000000000008000000000000000000000000,
|
||||
22,
|
||||
1110,
|
||||
22,
|
||||
1110,
|
||||
7,
|
||||
,
|
||||
,
|
||||
08,//85
|
||||
|
||||
#GOGOEND
|
||||
1110,
|
||||
11,
|
||||
1110,
|
||||
11,
|
||||
1110,
|
||||
22,
|
||||
3,
|
||||
500000000000000000000000000008000000000000000000,
|
||||
1110,
|
||||
11,
|
||||
1110,
|
||||
11,
|
||||
1110,
|
||||
22,
|
||||
3,
|
||||
500000000000000000000000000008000000000000000000,
|
||||
600000000000000000000000000008000000000000000000,
|
||||
7008,
|
||||
,
|
||||
3,
|
||||
,
|
||||
,
|
||||
,
|
||||
,
|
||||
#END
|
||||
Reference in New Issue
Block a user