tja
This commit is contained in:
767
tja/457.tja
Normal file
767
tja/457.tja
Normal file
@@ -0,0 +1,767 @@
|
||||
//TJADB Project
|
||||
TITLE:Danba Danba Din Dan
|
||||
TITLEJA:ダンバ・ダンバ・ディン・ダン
|
||||
SUBTITLE:--by YMCK
|
||||
SUBTITLEJA:by YMCK
|
||||
BPM:170
|
||||
WAVE:Danba Danba Din Dan.ogg
|
||||
OFFSET:-1.600
|
||||
DEMOSTART:49.585
|
||||
|
||||
//SONG_ID:ymck2
|
||||
//shinuchi: 3560/2630/1820/1270/860
|
||||
|
||||
COURSE:Edit
|
||||
LEVEL:10
|
||||
BALLOON:
|
||||
SCOREINIT:320,860
|
||||
SCOREDIFF:73
|
||||
|
||||
#START
|
||||
100100100100200000200000101010100000100000200000,
|
||||
101010100100200000200000100100100000100100200200,
|
||||
|
||||
100000200100100000200000101010100000200200100000,
|
||||
1011102011201122,
|
||||
100000200100100000200000101010100000200200100000,
|
||||
101010100100200000200000100100200000100100200200,
|
||||
|
||||
100000200100100000200000101010100000200200100000,
|
||||
101010100000200000100100200000200200100000200000,
|
||||
100222100200300300300400,
|
||||
0330,
|
||||
|
||||
100202100100200100202100,
|
||||
200200300000300010200200,
|
||||
100202100222200100202100,
|
||||
200200100200100201200200,
|
||||
|
||||
100202100200111100202100,
|
||||
100000200020100000200200100000200010200000200000,
|
||||
100202100100202100100200,
|
||||
101010100100200000100000200000000000000000000000, //18
|
||||
|
||||
100000100100100000100000101010100000100000100000,
|
||||
101010100100100000100000100100100000200000000000,
|
||||
100000100100100000100000101010100000100000100000,
|
||||
101010100100100000100000100100100000100100100100,
|
||||
|
||||
100000100100100000100000101010100000100000100000,
|
||||
101010100100100000100000100100100000200000000000,
|
||||
100000100100100000100000101010100000100000100000,
|
||||
101010100100100000100000100100100000100100100100,
|
||||
|
||||
100000200100100000200000101010100000200100200000,
|
||||
101010100100100000200000100200100000200200100100,
|
||||
1021102010102120,
|
||||
101010200100100000200000100200100000200200100100,
|
||||
|
||||
100000200100100000200000101010100000200100200000,
|
||||
101010100100100000200000100200100000200200100100,
|
||||
100000202010100000200000101020200000100100100100,
|
||||
2, //34
|
||||
|
||||
#GOGOSTART
|
||||
100000200100100000200000101010100000200200100000,
|
||||
1011102011101122,
|
||||
100000200100100000200000101010100000200200100000,
|
||||
101010100100200000200000100100100000100100200200,
|
||||
|
||||
100000200100100000200000101010100000200200100000,
|
||||
101010100000200000100000100100100000100100200200,
|
||||
101010100100100000200000300000300000300000400000,
|
||||
#GOGOEND
|
||||
#MEASURE 2/4
|
||||
0,
|
||||
#BPMCHANGE 146.37
|
||||
111202, //43
|
||||
|
||||
#MEASURE 4/4
|
||||
#BPMCHANGE 145
|
||||
100000100000100011200020,
|
||||
101001100202,
|
||||
100000100000100011200020,
|
||||
100222101020121022202020,
|
||||
|
||||
#GOGOSTART
|
||||
100212100020100221100020,
|
||||
102011201010221022201020,
|
||||
100212100020100221100020,
|
||||
102011201010221022201020,
|
||||
|
||||
100212101020111221101020,
|
||||
102011201010221122201020,
|
||||
100212101020111221101020,
|
||||
102011221010201022201010,
|
||||
#GOGOEND
|
||||
#BPMCHANGE 170
|
||||
#SCROLL 0.86
|
||||
200000001010200000200000200100100000400000000000, //56
|
||||
|
||||
#SCROLL 1
|
||||
100000100100100000100000101010100000100000100000,
|
||||
101010100100100000100000100100100000200200200000,
|
||||
100000100100100000100000101010100000100000100000,
|
||||
101010100100100000100000100100100000100100100100,
|
||||
|
||||
100000100100100000100000101010100000100000100000,
|
||||
101010100100100000100000100100100000200200200000,
|
||||
100000100100100000100000101010100000100000100000,
|
||||
101010100100100000100000100100100000100100100100,
|
||||
|
||||
100000200100100000200000101010100000200100200000,
|
||||
101010100100100000200000100200100000200200100100,
|
||||
1021102010102120,
|
||||
101010200100100000200000100200100000200200100100,
|
||||
|
||||
100000200100100000200000101010100000200100200000,
|
||||
101010100100100000200000100200100000200200100100,
|
||||
100221100200112200300400,
|
||||
101010100100100000200000100200100000200200200200,
|
||||
|
||||
101010100100200000200000101010100100200200202020,
|
||||
100100100100200200200200101010100100200000200000,
|
||||
111111111111222222222222,
|
||||
1003, //76
|
||||
|
||||
#GOGOSTART
|
||||
100000200100100000101010101010100000200200100000,
|
||||
1011102011201122,
|
||||
100000200100100000200000101010100000200200100000,
|
||||
101010100100200000200000100100100000100100200200,
|
||||
|
||||
100000200100100000101010101010100000200200100000,
|
||||
101010100000200000100000100100200000100100200200,
|
||||
100222100200300300300400,
|
||||
0330,
|
||||
|
||||
100222100100200100222100,
|
||||
100111200100100222100200,
|
||||
100222100200100100111200,
|
||||
100200100100100222100200,
|
||||
|
||||
100222100100200100111200,
|
||||
100222100200100111200200,
|
||||
100222100200300300300400,
|
||||
0330, //92
|
||||
|
||||
100202100100200100202100,
|
||||
200000200000300000000000300000200010200200200200,
|
||||
100202100222200100202100,
|
||||
200000200000100000200000100000200010200200200200,
|
||||
|
||||
100000200020100000200000101010100000200020100200,
|
||||
100000200020100000200000100100200010200000200000,
|
||||
100000100100111100100100,
|
||||
101010100100200000000000400000000000000000000000,
|
||||
#GOGOEND
|
||||
0, //101
|
||||
#END
|
||||
|
||||
|
||||
COURSE:Oni
|
||||
LEVEL:8
|
||||
BALLOON:12,12,13,14,18,12
|
||||
SCOREINIT:440,1460
|
||||
SCOREDIFF:100
|
||||
|
||||
#START
|
||||
0,
|
||||
0,
|
||||
|
||||
30430430,
|
||||
3022102010221020,
|
||||
1011201020101120,
|
||||
7008,
|
||||
|
||||
30430430,
|
||||
3022102010221020,
|
||||
1011202010201020,
|
||||
0330,
|
||||
|
||||
1011201000101000,
|
||||
2020300030002222,
|
||||
1011201000102010,
|
||||
22343022,
|
||||
|
||||
10210121,
|
||||
22303000,
|
||||
10212212,
|
||||
1022101020000000, //18
|
||||
|
||||
1022201022221020,
|
||||
0022102011112000,
|
||||
10210212,
|
||||
1330,
|
||||
|
||||
1022201022221020,
|
||||
0022102011112000,
|
||||
10210212,
|
||||
1010202011202222,
|
||||
|
||||
1022102000102000,
|
||||
1010202011201122,
|
||||
12112121,
|
||||
1020102011202222,
|
||||
|
||||
1022102000102000,
|
||||
1010202011201122,
|
||||
12112110,
|
||||
500000000000000008000000000000000000000000000000, //34
|
||||
|
||||
#GOGOSTART
|
||||
30430430,
|
||||
3022102010221020,
|
||||
1011201020101120,
|
||||
7008,
|
||||
|
||||
30430430,
|
||||
3022102010221020,
|
||||
1011202010201020,
|
||||
#GOGOEND
|
||||
#MEASURE 2/4
|
||||
03,
|
||||
#BARLINEOFF
|
||||
#BPMCHANGE 146.37
|
||||
#SCROLL 1.161
|
||||
3, //43
|
||||
|
||||
#BARLINEON
|
||||
#MEASURE 4/4
|
||||
#BPMCHANGE 145
|
||||
#SCROLL 1
|
||||
100000100000100022200020,
|
||||
101002100202,
|
||||
100000100000100022200020,
|
||||
100022101020101022202020,
|
||||
|
||||
#GOGOSTART
|
||||
100000100000100022100020,
|
||||
102011201010202011201010,
|
||||
100000100000100022100020,
|
||||
102011201010202011201020,
|
||||
|
||||
100222100020100222100020,
|
||||
102011201010202011201010,
|
||||
100222100020100222101020,
|
||||
102011201010202020101020,
|
||||
#GOGOEND
|
||||
#BPMCHANGE 170
|
||||
#SCROLL 0.86
|
||||
100000001010200000200000200100100000400000000000, //56
|
||||
|
||||
#SCROLL 1
|
||||
1022201022221020,
|
||||
0022102011112000,
|
||||
10210212,
|
||||
1330,
|
||||
|
||||
1022201022221020,
|
||||
0022102011112000,
|
||||
10210212,
|
||||
1010202011202222,
|
||||
|
||||
1022102000102000,
|
||||
1010202011201122,
|
||||
12112121,
|
||||
1020102011202222,
|
||||
|
||||
1022102000102000,
|
||||
1010202011201122,
|
||||
12112112,
|
||||
0333,
|
||||
|
||||
7008,
|
||||
7008,
|
||||
7,
|
||||
8, //76
|
||||
|
||||
#GOGOSTART
|
||||
30430430,
|
||||
3022102010221020,
|
||||
1011201020101120,
|
||||
7008,
|
||||
|
||||
30430430,
|
||||
3022102010221020,
|
||||
1011202010201020,
|
||||
0330,
|
||||
|
||||
0,
|
||||
0,
|
||||
1000201020101120,
|
||||
1022102010000000,
|
||||
|
||||
0,
|
||||
00000001,
|
||||
1011202010201020,
|
||||
00303222, //92
|
||||
|
||||
1011201000101000,
|
||||
2020300030002222,
|
||||
1011201000102010,
|
||||
2020304030001122,
|
||||
|
||||
10210121,
|
||||
22303000,
|
||||
10212212,
|
||||
1340,
|
||||
#GOGOEND
|
||||
0, //101
|
||||
#END
|
||||
|
||||
|
||||
COURSE:Hard
|
||||
LEVEL:7
|
||||
BALLOON:12,12,13,14,18,12
|
||||
SCOREINIT:490,2220
|
||||
SCOREDIFF:125
|
||||
|
||||
#START
|
||||
0,
|
||||
0,
|
||||
|
||||
30430430,
|
||||
3,
|
||||
10210112,
|
||||
7008,
|
||||
|
||||
30430430,
|
||||
3,
|
||||
11221212,
|
||||
0330,
|
||||
|
||||
1011101000101000,
|
||||
0330,
|
||||
1011101000101000,
|
||||
00343000,
|
||||
|
||||
1022201000101000,
|
||||
0330,
|
||||
10212212,
|
||||
10334000, //18
|
||||
|
||||
12210112,
|
||||
0020100011101000,
|
||||
10210212,
|
||||
1330,
|
||||
|
||||
12120112,
|
||||
0020100011101000,
|
||||
10210212,
|
||||
12221000,
|
||||
|
||||
1011102000102000,
|
||||
12221000,
|
||||
10112212,
|
||||
12121000,
|
||||
|
||||
1011102000102000,
|
||||
12221000,
|
||||
1011101000101000,
|
||||
500000000000000008000000000000000000000000000000, //34
|
||||
|
||||
#GOGOSTART
|
||||
30430430,
|
||||
3,
|
||||
10212112,
|
||||
7008,
|
||||
|
||||
30430430,
|
||||
3,
|
||||
11221212,
|
||||
#GOGOEND
|
||||
#MEASURE 2/4
|
||||
03,
|
||||
#BARLINEOFF
|
||||
#BPMCHANGE 146.37
|
||||
#SCROLL 1.161
|
||||
3, //43
|
||||
|
||||
#BARLINEON
|
||||
#MEASURE 4/4
|
||||
#BPMCHANGE 145
|
||||
#SCROLL 1
|
||||
100100102200,
|
||||
101001100000,
|
||||
100100102200,
|
||||
101101101100,
|
||||
|
||||
#GOGOSTART
|
||||
100100102200,
|
||||
101101101100,
|
||||
100100102200,
|
||||
101101101100,
|
||||
|
||||
100100102200,
|
||||
101101101101,
|
||||
100100102200,
|
||||
101101101101,
|
||||
#GOGOEND
|
||||
#BPMCHANGE 170
|
||||
#SCROLL 0.86
|
||||
1, //56
|
||||
|
||||
#SCROLL 1
|
||||
12210112,
|
||||
0020100011101000,
|
||||
10210212,
|
||||
1330,
|
||||
|
||||
12120112,
|
||||
0020100011101000,
|
||||
10210212,
|
||||
12221000,
|
||||
|
||||
1011102000102000,
|
||||
12221000,
|
||||
10112212,
|
||||
12121000,
|
||||
|
||||
1011102000102000,
|
||||
12221021,
|
||||
10120122,
|
||||
0333,
|
||||
|
||||
7008,
|
||||
7008,
|
||||
7,
|
||||
8, //76
|
||||
|
||||
#GOGOSTART
|
||||
30340340,
|
||||
3440,
|
||||
10210112,
|
||||
7008,
|
||||
|
||||
30340340,
|
||||
3440,
|
||||
11221212,
|
||||
0330,
|
||||
|
||||
0,
|
||||
0,
|
||||
10212112,
|
||||
12112000,
|
||||
|
||||
0,
|
||||
0,
|
||||
11221212,
|
||||
0330, //92
|
||||
|
||||
1011101000101000,
|
||||
22303000,
|
||||
1011101000101000,
|
||||
22343000,
|
||||
|
||||
12210121,
|
||||
22303000,
|
||||
10212112,
|
||||
1340,
|
||||
#GOGOEND
|
||||
0, //101
|
||||
#END
|
||||
|
||||
|
||||
COURSE:Normal
|
||||
LEVEL:6
|
||||
BALLOON:10,10,10,10,15,10
|
||||
SCOREINIT:540,3510
|
||||
SCOREDIFF:145
|
||||
|
||||
#START
|
||||
0,
|
||||
0,
|
||||
|
||||
10110110,
|
||||
1,
|
||||
10101110,
|
||||
7008,
|
||||
|
||||
10110110,
|
||||
1,
|
||||
10101011,
|
||||
0330,
|
||||
|
||||
10010110,
|
||||
0330,
|
||||
10010110,
|
||||
00333000,
|
||||
|
||||
10010110,
|
||||
0440,
|
||||
1111,
|
||||
10444000, //18
|
||||
|
||||
11,
|
||||
1120,
|
||||
10110110,
|
||||
3330,
|
||||
|
||||
11,
|
||||
1120,
|
||||
10110110,
|
||||
3330,
|
||||
|
||||
10110000,
|
||||
10110000,
|
||||
11,
|
||||
1110,
|
||||
|
||||
10110000,
|
||||
10110000,
|
||||
1111,
|
||||
500000000000000008000000000000000000000000000000, //34
|
||||
|
||||
#GOGOSTART
|
||||
30330330,
|
||||
3,
|
||||
10101110,
|
||||
7008,
|
||||
|
||||
30330330,
|
||||
3,
|
||||
10101011,
|
||||
#GOGOEND
|
||||
#MEASURE 2/4
|
||||
03,
|
||||
#BARLINEOFF
|
||||
#BPMCHANGE 146.37
|
||||
#SCROLL 1.161
|
||||
3, //43
|
||||
|
||||
#BARLINEON
|
||||
#MEASURE 4/4
|
||||
#BPMCHANGE 145
|
||||
#SCROLL 1
|
||||
1110,
|
||||
11,
|
||||
1112,
|
||||
11,
|
||||
|
||||
#GOGOSTART
|
||||
1212,
|
||||
1110,
|
||||
1212,
|
||||
1110,
|
||||
|
||||
1212,
|
||||
1111,
|
||||
3434,
|
||||
3333,
|
||||
#GOGOEND
|
||||
#BPMCHANGE 170
|
||||
#SCROLL 0.86
|
||||
3, //56
|
||||
|
||||
#SCROLL 1
|
||||
11,
|
||||
1120,
|
||||
10110110,
|
||||
3330,
|
||||
|
||||
11,
|
||||
1120,
|
||||
10110110,
|
||||
3330,
|
||||
|
||||
10110000,
|
||||
10110000,
|
||||
11,
|
||||
1110,
|
||||
|
||||
10110000,
|
||||
10110000,
|
||||
1111,
|
||||
0333,
|
||||
|
||||
7008,
|
||||
7008,
|
||||
7,
|
||||
8, //76
|
||||
|
||||
#GOGOSTART
|
||||
30330330,
|
||||
3440,
|
||||
10101110,
|
||||
7008,
|
||||
|
||||
30330330,
|
||||
3440,
|
||||
10101011,
|
||||
0330,
|
||||
|
||||
0,
|
||||
0,
|
||||
1212,
|
||||
1120,
|
||||
|
||||
0,
|
||||
0,
|
||||
10101011,
|
||||
0330, //92
|
||||
|
||||
10010110,
|
||||
0330,
|
||||
10010110,
|
||||
00333000,
|
||||
|
||||
10010110,
|
||||
0440,
|
||||
10101011,
|
||||
1340,
|
||||
#GOGOEND
|
||||
0, //101
|
||||
#END
|
||||
|
||||
|
||||
COURSE:Easy
|
||||
LEVEL:5
|
||||
BALLOON:7,7,7,7,10,7
|
||||
SCOREINIT:430,5200
|
||||
SCOREDIFF:120
|
||||
|
||||
#START
|
||||
0,
|
||||
0,
|
||||
|
||||
1111,
|
||||
1,
|
||||
12,
|
||||
7008,
|
||||
|
||||
1111,
|
||||
1,
|
||||
500000000000000000000000000000000000000008000000,
|
||||
0330,
|
||||
|
||||
10010010,
|
||||
0330,
|
||||
10010010,
|
||||
00333000,
|
||||
|
||||
10010010,
|
||||
0440,
|
||||
10010010,
|
||||
00444000, //18
|
||||
|
||||
11,
|
||||
12,
|
||||
1110,
|
||||
3330,
|
||||
|
||||
11,
|
||||
12,
|
||||
1110,
|
||||
3330,
|
||||
|
||||
4,
|
||||
3,
|
||||
11,
|
||||
1110,
|
||||
|
||||
4,
|
||||
3,
|
||||
11,
|
||||
500000000000000008000000000000000000000000000000, //34
|
||||
|
||||
#GOGOSTART
|
||||
3333,
|
||||
3,
|
||||
12,
|
||||
7008,
|
||||
|
||||
3333,
|
||||
3,
|
||||
500000000000000000000000000000000000000008000000,
|
||||
#GOGOEND
|
||||
#MEASURE 2/4
|
||||
0,
|
||||
#BARLINEOFF
|
||||
#BPMCHANGE 146.37
|
||||
#SCROLL 1.161
|
||||
0, //43
|
||||
|
||||
#BARLINEON
|
||||
#MEASURE 4/4
|
||||
#BPMCHANGE 145
|
||||
#SCROLL 1
|
||||
1110,
|
||||
11,
|
||||
1110,
|
||||
11,
|
||||
|
||||
#GOGOSTART
|
||||
1210,
|
||||
11,
|
||||
1210,
|
||||
11,
|
||||
|
||||
1210,
|
||||
1110,
|
||||
3430,
|
||||
3333,
|
||||
#GOGOEND
|
||||
#BPMCHANGE 170
|
||||
#SCROLL 0.86
|
||||
3, //56
|
||||
|
||||
#SCROLL 1
|
||||
11,
|
||||
12,
|
||||
1110,
|
||||
3330,
|
||||
|
||||
11,
|
||||
12,
|
||||
1110,
|
||||
3330,
|
||||
|
||||
4,
|
||||
3,
|
||||
11,
|
||||
1110,
|
||||
|
||||
4,
|
||||
3,
|
||||
1011,
|
||||
0333,
|
||||
|
||||
7008,
|
||||
7008,
|
||||
7,
|
||||
8, //76
|
||||
|
||||
#GOGOSTART
|
||||
3333,
|
||||
3,
|
||||
12,
|
||||
7008,
|
||||
|
||||
3333,
|
||||
3,
|
||||
500000000000000000000000000000000000000008000000,
|
||||
0330,
|
||||
|
||||
0,
|
||||
0,
|
||||
1210,
|
||||
1120,
|
||||
|
||||
0,
|
||||
0,
|
||||
500000000000000000000000000000000000000008000000,
|
||||
0330, //92
|
||||
|
||||
10010010,
|
||||
0330,
|
||||
10010010,
|
||||
00333000,
|
||||
|
||||
10010010,
|
||||
0440,
|
||||
11,
|
||||
1340,
|
||||
#GOGOEND
|
||||
0, //101
|
||||
#END
|
||||
Reference in New Issue
Block a user