tja
This commit is contained in:
605
tja/461.tja
Normal file
605
tja/461.tja
Normal file
@@ -0,0 +1,605 @@
|
||||
//TJADB Project
|
||||
TITLE:Yokuderu 2000
|
||||
TITLEJA:よくでる2000
|
||||
SUBTITLE:--Linda AI-CUE
|
||||
BPM:186
|
||||
OFFSET:-1.978
|
||||
WAVE:Yokuderu 2000.ogg
|
||||
DEMOSTART:33.913
|
||||
|
||||
COURSE:Oni
|
||||
LEVEL:9
|
||||
SCOREINIT:490
|
||||
SCOREDIFF:125
|
||||
|
||||
|
||||
#START
|
||||
|
||||
|
||||
#MEASURE 3/4
|
||||
111,
|
||||
1,
|
||||
11,
|
||||
1,
|
||||
001111,
|
||||
122,
|
||||
001111,
|
||||
122,
|
||||
111,
|
||||
1,
|
||||
100110,
|
||||
1,
|
||||
111,
|
||||
102220,
|
||||
102220,
|
||||
100000001111,
|
||||
222210000000,
|
||||
100220,
|
||||
111100000,
|
||||
100220,
|
||||
111100000,
|
||||
100220,
|
||||
111100111,
|
||||
100220,
|
||||
101010100100100000,
|
||||
101220,
|
||||
101010100100100000,
|
||||
100220,
|
||||
101010100100100100,
|
||||
100220,
|
||||
101110111000,
|
||||
#BPMCHANGE 187.77
|
||||
500000000000000000000008000000000000,
|
||||
#BPMCHANGE 186
|
||||
221110000000,
|
||||
|
||||
#GOGOSTART
|
||||
102011102020,
|
||||
102022101110,
|
||||
102011102020,
|
||||
100022221111,
|
||||
102011102020,
|
||||
121012,
|
||||
112211221000,
|
||||
112211221000,
|
||||
102011102020,
|
||||
102022101110,
|
||||
102011102020,
|
||||
100022221111,
|
||||
100011102020,
|
||||
121012,
|
||||
111222111020,
|
||||
323000,
|
||||
|
||||
#GOGOEND
|
||||
1,
|
||||
1,
|
||||
1,
|
||||
101110202020,
|
||||
101110222020,
|
||||
101110202020,
|
||||
100022221110,
|
||||
333,
|
||||
100022221110,
|
||||
#BPMCHANGE 184.41
|
||||
333,
|
||||
#BPMCHANGE 186
|
||||
100022221111,
|
||||
101110202020,
|
||||
101110202020,
|
||||
101110202020,
|
||||
111,
|
||||
102022202000,
|
||||
102022202000,
|
||||
111020111020,
|
||||
111110002000,
|
||||
100110,
|
||||
102012,
|
||||
100110,
|
||||
101,
|
||||
100110,
|
||||
102012,
|
||||
100110,
|
||||
#BPMCHANGE 182.88
|
||||
100000001111,
|
||||
#BPMCHANGE 185.91
|
||||
112112,
|
||||
112211,
|
||||
112112,
|
||||
112211,
|
||||
111111,
|
||||
101111111110,
|
||||
#BPMCHANGE 189.76
|
||||
5,
|
||||
000000000000000008000000000000000000,
|
||||
|
||||
#GOGOSTART
|
||||
#BPMCHANGE 186
|
||||
101011102020,
|
||||
101011101110,
|
||||
101011102020,
|
||||
101022211110,
|
||||
101011102020,
|
||||
121012,
|
||||
111122221020,
|
||||
111122221020,
|
||||
101011102020,
|
||||
101011101110,
|
||||
101011102020,
|
||||
101022211110,
|
||||
101011102020,
|
||||
121012,
|
||||
112112112110,
|
||||
302030002220,
|
||||
|
||||
#GOGOEND
|
||||
100220,
|
||||
202,
|
||||
|
||||
#GOGOSTART
|
||||
102012201020,
|
||||
102012121220,
|
||||
102012201020,
|
||||
121112,
|
||||
112111201020,
|
||||
112111201020,
|
||||
102012101020,
|
||||
102012101110,
|
||||
102012101020,
|
||||
102012121220,
|
||||
112011201120,
|
||||
112011201120,
|
||||
112211211122,
|
||||
112110000000,
|
||||
323232,
|
||||
323000,
|
||||
|
||||
#GOGOEND
|
||||
|
||||
|
||||
#END
|
||||
|
||||
|
||||
COURSE:Hard
|
||||
LEVEL:7
|
||||
SCOREINIT:530
|
||||
SCOREDIFF:130
|
||||
|
||||
#START
|
||||
#MEASURE 3/4
|
||||
111,
|
||||
1,
|
||||
11,
|
||||
1,
|
||||
001111,
|
||||
122,
|
||||
001111,
|
||||
122,
|
||||
111,
|
||||
1,
|
||||
100110,
|
||||
1,
|
||||
111,
|
||||
102220,
|
||||
102220,
|
||||
100000001110,
|
||||
222010000000,
|
||||
100220,
|
||||
111100000,
|
||||
100220,
|
||||
111100000,
|
||||
100220,
|
||||
111100000,
|
||||
100220,
|
||||
111100100,
|
||||
100220,
|
||||
111100100,
|
||||
100220,
|
||||
101010100100100000,
|
||||
100220,
|
||||
100010111000,
|
||||
#BPMCHANGE 187.77
|
||||
500000000000000000000008000000000000,
|
||||
#BPMCHANGE 186
|
||||
101110000000,//33
|
||||
|
||||
#GOGOSTART
|
||||
100011101000,
|
||||
100011102000,
|
||||
100011101000,
|
||||
122,
|
||||
100011102000,
|
||||
101012,
|
||||
101012,
|
||||
101012,
|
||||
100011101000,
|
||||
100011102000,
|
||||
100011101000,
|
||||
122,
|
||||
100011102000,
|
||||
101012,
|
||||
333,
|
||||
330,//49
|
||||
|
||||
#GOGOEND
|
||||
1,
|
||||
1,
|
||||
1,
|
||||
101110002000,
|
||||
101110002000,
|
||||
101110002000,
|
||||
101110,
|
||||
333,
|
||||
102220,
|
||||
#BPMCHANGE 184.41
|
||||
333,
|
||||
#BPMCHANGE 186
|
||||
111,
|
||||
101110202000,
|
||||
101110202000,
|
||||
101110202000,
|
||||
111,
|
||||
100022202000,
|
||||
100022202000,
|
||||
111000111000,
|
||||
111010000000,
|
||||
100110,
|
||||
102012,
|
||||
100110,
|
||||
101,
|
||||
100110,
|
||||
102012,
|
||||
100110,
|
||||
#BPMCHANGE 182.88
|
||||
101,
|
||||
#BPMCHANGE 185.91
|
||||
112110,
|
||||
112110,
|
||||
112112,
|
||||
112110,
|
||||
111111,
|
||||
111111,
|
||||
#BPMCHANGE 189.76
|
||||
5,
|
||||
000000000000000008000000000000000000,//84
|
||||
|
||||
#GOGOSTART
|
||||
#BPMCHANGE 186
|
||||
101110202020,
|
||||
101110202000,
|
||||
101110202020,
|
||||
101110202000,
|
||||
101110202220,
|
||||
101012,
|
||||
101210,
|
||||
121012,
|
||||
101110202020,
|
||||
101110202000,
|
||||
101110202020,
|
||||
101110202000,
|
||||
101110202220,
|
||||
101012,
|
||||
101210,
|
||||
121000,//100
|
||||
|
||||
#GOGOEND
|
||||
100220,
|
||||
202,//102
|
||||
|
||||
#GOGOSTART
|
||||
101011102020,
|
||||
101011102000,
|
||||
101011102020,
|
||||
101011102000,
|
||||
333,
|
||||
333,
|
||||
101022201010,
|
||||
101022201000,
|
||||
101022201010,
|
||||
101022201000,
|
||||
121212,
|
||||
121212,
|
||||
333,
|
||||
330,
|
||||
333,
|
||||
330,//118
|
||||
|
||||
#GOGOEND
|
||||
,
|
||||
#END
|
||||
|
||||
COURSE:Normal
|
||||
LEVEL:6
|
||||
SCOREINIT:660
|
||||
SCOREDIFF:185
|
||||
|
||||
#START
|
||||
#MEASURE 3/4
|
||||
111,
|
||||
1,
|
||||
1,
|
||||
1,
|
||||
,
|
||||
122,
|
||||
,
|
||||
122,
|
||||
111,
|
||||
1,
|
||||
1,
|
||||
1,
|
||||
111,
|
||||
122,
|
||||
122,
|
||||
1,
|
||||
330,
|
||||
100220,
|
||||
111,
|
||||
100220,
|
||||
1,
|
||||
100220,
|
||||
111,
|
||||
100220,
|
||||
1,
|
||||
100220,
|
||||
111,
|
||||
100220,
|
||||
1,
|
||||
100220,
|
||||
111,
|
||||
#BPMCHANGE 187.77
|
||||
500000000000000000000008000000000000,
|
||||
#BPMCHANGE 186
|
||||
330,//33
|
||||
|
||||
#GOGOSTART
|
||||
100220,
|
||||
100220,
|
||||
100220,
|
||||
1,
|
||||
100220,
|
||||
111,
|
||||
111,
|
||||
111,
|
||||
100220,
|
||||
100220,
|
||||
100220,
|
||||
1,
|
||||
100220,
|
||||
111,
|
||||
222,
|
||||
330,//49
|
||||
|
||||
#GOGOEND
|
||||
1,
|
||||
1,
|
||||
1,
|
||||
111020,
|
||||
110,
|
||||
111020,
|
||||
110,
|
||||
102220,
|
||||
,
|
||||
#BPMCHANGE 184.41
|
||||
102220,
|
||||
#BPMCHANGE 186
|
||||
1,
|
||||
111020,
|
||||
110,
|
||||
111020,
|
||||
110,
|
||||
102220,
|
||||
102220,
|
||||
111110,
|
||||
330,
|
||||
100220,
|
||||
122,
|
||||
100220,
|
||||
1,
|
||||
100220,
|
||||
122,
|
||||
100220,
|
||||
#BPMCHANGE 182.88
|
||||
1,
|
||||
#BPMCHANGE 185.91
|
||||
101110,
|
||||
101110,
|
||||
101110,
|
||||
1,
|
||||
101110,
|
||||
101110,
|
||||
#BPMCHANGE 189.76
|
||||
500000000000000000000000000000000008,
|
||||
,//84
|
||||
|
||||
#GOGOSTART
|
||||
#BPMCHANGE 186
|
||||
100220,
|
||||
100220,
|
||||
100220,
|
||||
1,
|
||||
100220,
|
||||
111,
|
||||
222,
|
||||
111,
|
||||
100220,
|
||||
100220,
|
||||
100220,
|
||||
1,
|
||||
100220,
|
||||
111,
|
||||
222,
|
||||
330,//100
|
||||
|
||||
#GOGOEND
|
||||
100220,
|
||||
1,//102
|
||||
|
||||
#GOGOSTART
|
||||
100220,
|
||||
1,
|
||||
100220,
|
||||
111,
|
||||
222,
|
||||
333,
|
||||
100220,
|
||||
100220,
|
||||
100220,
|
||||
1,
|
||||
100220,
|
||||
111,
|
||||
333,
|
||||
330,
|
||||
333,
|
||||
330,//118
|
||||
|
||||
#GOGOEND
|
||||
,
|
||||
#END
|
||||
|
||||
COURSE:Easy
|
||||
LEVEL:5
|
||||
SCOREINIT:480
|
||||
SCOREDIFF:135
|
||||
|
||||
#START
|
||||
#MEASURE 3/4
|
||||
1,
|
||||
1,
|
||||
1,
|
||||
1,
|
||||
,
|
||||
111,
|
||||
,
|
||||
111,
|
||||
1,
|
||||
1,
|
||||
1,
|
||||
1,
|
||||
110,
|
||||
110,
|
||||
110,
|
||||
1,
|
||||
3,
|
||||
100110,
|
||||
1,
|
||||
100110,
|
||||
1,
|
||||
100110,
|
||||
1,
|
||||
100110,
|
||||
1,
|
||||
100220,
|
||||
1,
|
||||
100220,
|
||||
1,
|
||||
100220,
|
||||
1,
|
||||
#BPMCHANGE 187.77
|
||||
500000000000000000000000000000000008,
|
||||
#BPMCHANGE 186
|
||||
,//33
|
||||
|
||||
#GOGOSTART
|
||||
100110,
|
||||
1,
|
||||
100110,
|
||||
1,
|
||||
100110,
|
||||
1,
|
||||
111,
|
||||
110,
|
||||
100220,
|
||||
1,
|
||||
100220,
|
||||
1,
|
||||
100220,
|
||||
1,
|
||||
111,
|
||||
330,//49
|
||||
|
||||
#GOGOEND
|
||||
1,
|
||||
1,
|
||||
1,
|
||||
111,
|
||||
110,
|
||||
111,
|
||||
110,
|
||||
222,
|
||||
,
|
||||
#BPMCHANGE 184.41
|
||||
222,
|
||||
#BPMCHANGE 186
|
||||
,
|
||||
111,
|
||||
110,
|
||||
111,
|
||||
110,
|
||||
222,
|
||||
222,
|
||||
2,
|
||||
110,
|
||||
100110,
|
||||
1,
|
||||
100110,
|
||||
1,
|
||||
100110,
|
||||
1,
|
||||
100110,
|
||||
#BPMCHANGE 182.88
|
||||
1,
|
||||
#BPMCHANGE 185.91
|
||||
100220,
|
||||
1,
|
||||
100220,
|
||||
1,
|
||||
100220,
|
||||
101,
|
||||
#BPMCHANGE 189.76
|
||||
500000000000000000000000000000000008,
|
||||
,//84
|
||||
|
||||
#GOGOSTART
|
||||
#BPMCHANGE 186
|
||||
100110,
|
||||
111,
|
||||
100110,
|
||||
1,
|
||||
100110,
|
||||
1,
|
||||
111,
|
||||
110,
|
||||
100220,
|
||||
122,
|
||||
100220,
|
||||
1,
|
||||
100220,
|
||||
1,
|
||||
111,
|
||||
330,//100
|
||||
|
||||
#GOGOEND
|
||||
100110,
|
||||
1,//102
|
||||
|
||||
#GOGOSTART
|
||||
100220,
|
||||
122,
|
||||
100220,
|
||||
1,
|
||||
333,
|
||||
330,
|
||||
100220,
|
||||
122,
|
||||
100220,
|
||||
1,
|
||||
100220,
|
||||
1,
|
||||
333,
|
||||
330,
|
||||
333,
|
||||
330,//118
|
||||
|
||||
#GOGOEND
|
||||
,
|
||||
#END
|
||||
Reference in New Issue
Block a user