tja
This commit is contained in:
270
tja/467.tja
Normal file
270
tja/467.tja
Normal file
@@ -0,0 +1,270 @@
|
||||
//TJADB Project
|
||||
TITLE:Hatsukoitouge de Geragerapo
|
||||
TITLEJA:初恋峠でゲラゲラポー
|
||||
SUBTITLE:--King Cream Soda/Yo-kai Watch
|
||||
SUBTITLEJA:「妖怪ウォッチ」より
|
||||
BPM:123
|
||||
WAVE:Hatsukoitouge de Geragerapo.ogg
|
||||
OFFSET:-2.256
|
||||
DEMOSTART:2.256
|
||||
|
||||
//shinuchi: 8950/6950/4720/3130
|
||||
|
||||
COURSE:Oni
|
||||
LEVEL:7
|
||||
BALLOON:5,16
|
||||
SCOREINIT:980,3490
|
||||
SCOREDIFF:293
|
||||
|
||||
#START
|
||||
12121001,
|
||||
0020102010221020,
|
||||
30033003,
|
||||
03033011,
|
||||
|
||||
1011101110100022,
|
||||
1022102210100102,
|
||||
1010010210100020,
|
||||
1020102011110211, //8
|
||||
|
||||
11223330,
|
||||
1010201120104030,
|
||||
1110001011100020,
|
||||
12127008,
|
||||
|
||||
2020202010222020,
|
||||
10211220,
|
||||
0010202010222020,
|
||||
1020102010022020, //16
|
||||
|
||||
01011010,
|
||||
500000000000000000000000000000000000000008000000,
|
||||
02022020,
|
||||
500000000000000000000008000000000000300000000000,
|
||||
|
||||
7008,
|
||||
30403036,
|
||||
0,
|
||||
000000000000000000000008000000000000000000000000, //24
|
||||
|
||||
#GOGOSTART
|
||||
1020102210112010,
|
||||
0020102210221020,
|
||||
1020102210112010,
|
||||
0020102211102000,
|
||||
|
||||
1020102210112010,
|
||||
0022102211104000,
|
||||
1020112010221010,
|
||||
0011201120102220, //32
|
||||
|
||||
1022102011221010,
|
||||
0020112211102000,
|
||||
1022102011221010,
|
||||
0020112010112210,
|
||||
|
||||
1022112210122010,
|
||||
0022102211221120,
|
||||
6,
|
||||
000000000000000000000008000000000000000000000000, //40
|
||||
#GOGOEND
|
||||
|
||||
30033003,
|
||||
03333000,
|
||||
0, //43
|
||||
#END
|
||||
|
||||
|
||||
COURSE:Hard
|
||||
LEVEL:4
|
||||
BALLOON:12
|
||||
SCOREINIT:1050,5530
|
||||
SCOREDIFF:375
|
||||
|
||||
#START
|
||||
12121001,
|
||||
02121212,
|
||||
30033003,
|
||||
03033000,
|
||||
|
||||
10102200,
|
||||
20201100,
|
||||
11001102,
|
||||
12143000, //8
|
||||
|
||||
11103330,
|
||||
22202240,
|
||||
11001102,
|
||||
12121000,
|
||||
|
||||
20202220,
|
||||
10102220,
|
||||
01112220,
|
||||
1110, //16
|
||||
|
||||
01011010,
|
||||
500000000000000000000000000000000000000008000000,
|
||||
02022020,
|
||||
500000000000000000000008000000000000300000000000,
|
||||
|
||||
7008,
|
||||
30303036,
|
||||
0,
|
||||
000000000000000008000000000000000000000000000000, //24
|
||||
|
||||
#GOGOSTART
|
||||
12121001,
|
||||
0020102010111000,
|
||||
12121001,
|
||||
02121000,
|
||||
|
||||
12121001,
|
||||
02123000,
|
||||
12121001,
|
||||
0020102010111000, //32
|
||||
|
||||
12121001,
|
||||
02121000,
|
||||
12121001,
|
||||
0020102010111000,
|
||||
|
||||
12121001,
|
||||
02121000,
|
||||
6,
|
||||
000000000000000000000008000000000000000000000000, //40
|
||||
#GOGOEND
|
||||
|
||||
30033003,
|
||||
03333000,
|
||||
0, //43
|
||||
#END
|
||||
|
||||
|
||||
COURSE:Normal
|
||||
LEVEL:4
|
||||
BALLOON:8
|
||||
SCOREINIT:1220,8410
|
||||
SCOREDIFF:593
|
||||
|
||||
#START
|
||||
10101001,
|
||||
0111,
|
||||
30033003,
|
||||
03033000,
|
||||
|
||||
1110,
|
||||
2220,
|
||||
11,
|
||||
1110, //8
|
||||
|
||||
1130,
|
||||
2224,
|
||||
11,
|
||||
1110,
|
||||
|
||||
2022,
|
||||
2022,
|
||||
11,
|
||||
1110, //16
|
||||
|
||||
1011,
|
||||
500000000000000000000000000000000000000008000000,
|
||||
02002020,
|
||||
500000000000000000000008000000000000300000000000,
|
||||
|
||||
7008,
|
||||
30303036,
|
||||
0,
|
||||
000000000000000008000000000000000000000000000000, //24
|
||||
|
||||
#GOGOSTART
|
||||
10101001,
|
||||
01101010,
|
||||
10101001,
|
||||
01101000,
|
||||
|
||||
20202002,
|
||||
02204000,
|
||||
10101001,
|
||||
01101010, //32
|
||||
|
||||
10101001,
|
||||
01101000,
|
||||
20202002,
|
||||
02202020,
|
||||
|
||||
20202001,
|
||||
01101000,
|
||||
6,
|
||||
000000000000000000000008000000000000000000000000, //40
|
||||
#GOGOEND
|
||||
|
||||
30033003,
|
||||
03303000,
|
||||
0, //43
|
||||
#END
|
||||
|
||||
|
||||
COURSE:Easy
|
||||
LEVEL:3
|
||||
BALLOON:8,10
|
||||
SCOREINIT:960,10250
|
||||
SCOREDIFF:625
|
||||
|
||||
#START
|
||||
10101001,
|
||||
0111,
|
||||
9009,
|
||||
8,
|
||||
|
||||
1110,
|
||||
1110,
|
||||
11,
|
||||
1110, //8
|
||||
|
||||
13,
|
||||
24,
|
||||
11,
|
||||
1110,
|
||||
|
||||
1011,
|
||||
1011,
|
||||
11,
|
||||
1110, //16
|
||||
|
||||
1011,
|
||||
500000000000000000000000000000000000000008000000,
|
||||
0022,
|
||||
500000000000000000000008000000000000000000000000,
|
||||
|
||||
500000000000000000000000000008000000000000000000,
|
||||
30303039,
|
||||
000000000000000009000000,
|
||||
8, //24
|
||||
|
||||
#GOGOSTART
|
||||
10101001,
|
||||
0111,
|
||||
10101001,
|
||||
0110,
|
||||
|
||||
10101001,
|
||||
0130,
|
||||
10101001,
|
||||
0111, //32
|
||||
|
||||
10101001,
|
||||
0110,
|
||||
10101001,
|
||||
0111,
|
||||
|
||||
10101001,
|
||||
0110,
|
||||
5,
|
||||
000000000000000000000008000000000000000000000000, //40
|
||||
#GOGOEND
|
||||
|
||||
30003003,
|
||||
0330,
|
||||
0, //43
|
||||
#END
|
||||
Reference in New Issue
Block a user