This commit is contained in:
2026-03-04 23:59:27 +09:00
parent 6e0312f5b4
commit 4b4e2b8c98
1128 changed files with 668765 additions and 0 deletions

354
tja/469.tja Normal file
View File

@@ -0,0 +1,354 @@
//TJADB Project
TITLE:Mirai e no Kagi
TITLEJA:未来への鍵
SUBTITLE:--Hiroto Sasaki & Junko Ozawa feat. Miki Tsuchiya
BPM:105
WAVE:Mirai e no Kagi.ogg
OFFSET:-2.343
DEMOSTART:43.468
COURSE:Oni
LEVEL:7
SCOREINIT:640
SCOREDIFF:178
#START
#MEASURE 3/4
102210222102,
100000000122,
100100022112,
1,
102210222102,
100000000122,
100112102212,
100130,
102022101000,
102022102000,
102022101000,
102022102000,
101022101020,
101022102020,
101022101020,
112210221011,
101021101000,
101021102000,
101110102010,
101110221011,
101021101000,
101021102000,
101111101122,
101120100000,//24
#GOGOSTART
100120112001,
101021102020,
101020112010,
201021102220,
100120112001,
101021102020,
101020112010,
201021100000,//32
#GOGOEND
102022102020,
102022101020,
102022102020,
101212112211,
102022102020,
102022100100,
401202,
121220102020,
101021101020,
102221102010,
102110102010,
101110221011,
101021101020,
102221102010,
101111101122,
101110404040,
101111101120,
333000,//50
#GOGOSTART
120120102221,
101021102021,
101020112010,
201122102220,
120120102221,
101021102021,
101020112010,
201021221010,
121120102221,
101022102021,
101020112010,
201021102220,
121120102221,
102022102021,
101020112010,
210500,
000008000000000000000000000000000000,
#GOGOEND
#END
COURSE:Hard
LEVEL:5
SCOREINIT:730
SCOREDIFF:150
#START
#MEASURE 3/4
101110101000,
1,
100100001011,
1,
101110101000,
100000000110,
100110100000,
100130,
122110,
122120,
122110,
122120,
122112,
122122,
122112,
102100,
101001101000,
101001102000,
101110102000,
101110201000,
101001101000,
101001102000,
101110101020,
101110100000,//24
#GOGOSTART
100110102000,
101001102000,
112120,
101001102220,
100120102000,
101001102000,
112120,
101001100000,//32
#GOGOEND
122120,
122110,
122120,
102220111020,
150,
000008000000000000100000000100000000,
401200,
111110102020,
101001101000,
101001102000,
102220102000,
101110201000,
101001101000,
101001102000,
101110101110,
101110202020,
101110101120,
333000,//50
#GOGOSTART
100120102000,
101001102000,
112120,
102001102220,
101120102000,
101001102000,
112120,
102001102220,
120120102000,
101001102020,
112121,
102001102220,
101120102000,
101002100011,
112120,
120500,
000008000000000000000000000000000000,//67
#GOGOEND
,
#END
COURSE:Normal
LEVEL:6
SCOREINIT:780
SCOREDIFF:200
#START
#MEASURE 3/4
100110,
500000000000000000000008000000000000,
100100001010,
1,
100110,
500000000000000000000008000000000000,
12,
100130,
101110,
100110,
101110,
102100,
101110,
100110,
101110,
102100,
110220,
110120,
101110100000,
202220200000,
110220,
110120,
101110100000,
202220200000,//24
#GOGOSTART
100110100000,
100110200000,
110120,
110200,
100110100000,
100110200000,
110120,
110300,//32
#GOGOEND
022022,
022022,
122022,
022022,
150,
000008000000000000100000000100000000,
200101,
101110100000,
110220,
110120,
101110100000,
202220200000,
110220,
110120,
101110100000,
100222,
101110100000,
333000,//50
#GOGOSTART
100110100000,
100110200000,
110120,
110200,
101110100000,
101110200000,
110120,
110300,
100110100000,
100110200000,
110120,
110200,
101110100000,
110300,
110120,
110500,
000008000000000000000000000000000000,//67
#GOGOEND
,
#END
COURSE:Easy
LEVEL:4
SCOREINIT:620
SCOREDIFF:140
#START
#MEASURE 3/4
11,
500000000000000000000008000000000000,
11,
12,
11,
500000000000000000000008000000000000,
12,
13,
100110,
11,
100110,
12,
100110,
11,
100110,
13,
110100,
110200,
101100,
12,
110100,
110200,
111100,
222200,//24
#GOGOSTART
12,
12,
110220,
110100,
12,
12,
110220,
110300,//32
#GOGOEND
022022,
022020,
022022,
022020,
150,
000008000000000000000000000000000000,
41,
14,
110200,
110100,
101100,
201100,
32,
110100,
111100,
222200,
111100,
333000,//50
#GOGOSTART
12,
12,
110220,
110100,
32,
32,
110220,
110300,
111100,
111100,
110220,
110100,
111100,
110300,
110110,
110500,
000008000000000000000000000000000000,//67
#GOGOEND
,
#END