tja
This commit is contained in:
420
tja/47.tja
Normal file
420
tja/47.tja
Normal file
@@ -0,0 +1,420 @@
|
||||
//TJADB Project
|
||||
TITLE:Zen Zen Zense
|
||||
TITLEJA:前前前世
|
||||
SUBTITLE:--RADWIMPS/Your Name.
|
||||
SUBTITLEJA:映画「君の名は。」より
|
||||
BPM:190
|
||||
WAVE:Zen Zen Zense.ogg
|
||||
OFFSET:-1.688
|
||||
DEMOSTART:63.095
|
||||
|
||||
//shinuchi: 8160/6260/2870/2070
|
||||
|
||||
COURSE:Oni
|
||||
LEVEL:8
|
||||
BALLOON:12,11
|
||||
SCOREINIT:690,2140
|
||||
SCOREDIFF:185
|
||||
|
||||
#START
|
||||
0,
|
||||
70000008,
|
||||
444444,
|
||||
|
||||
#GOGOSTART
|
||||
10101120,
|
||||
10101210,
|
||||
10101120,
|
||||
10102122,
|
||||
|
||||
10101120,
|
||||
10102120,
|
||||
1110201020001000,
|
||||
7008, //11
|
||||
#GOGOEND
|
||||
|
||||
10211021,
|
||||
01201120,
|
||||
10211021,
|
||||
01201120,
|
||||
|
||||
1010202210102000,
|
||||
1010201120102000,
|
||||
10201121,
|
||||
0010200011102000, //19
|
||||
|
||||
10211021,
|
||||
01211120,
|
||||
10211021,
|
||||
0010200011102000,
|
||||
|
||||
1010202210102010,
|
||||
1010202210102220,
|
||||
10201121,
|
||||
0010200011102000, //27
|
||||
|
||||
1010202210102022,
|
||||
1010202210102220,
|
||||
10201012,
|
||||
0020101020112000,
|
||||
|
||||
1110201110201110,
|
||||
2011102011112000,
|
||||
500000000000000000000000000008000000200000100000,
|
||||
0010201000112000, //35
|
||||
|
||||
1110201110201110,
|
||||
2011102011112000,
|
||||
500000000000000000000000000008000000200000100000,
|
||||
0010201110102000,
|
||||
|
||||
30012001,
|
||||
01012000,
|
||||
10012020,
|
||||
01012000, //43
|
||||
|
||||
10012001,
|
||||
0010001020112000,
|
||||
1010201110201010,
|
||||
2011202011102000,
|
||||
1010201110201020,
|
||||
0011111110000000, //49
|
||||
|
||||
#GOGOSTART
|
||||
1110111011102011,
|
||||
1020112000201120,
|
||||
1110202210102010,
|
||||
0010201110102010,
|
||||
|
||||
0010202210102220,
|
||||
0010201120102000,
|
||||
1110201120201120,
|
||||
0011102000102220, //57
|
||||
|
||||
1110111011102011,
|
||||
1020112000201120,
|
||||
1111202210201120,
|
||||
0010201110201120,
|
||||
|
||||
0010202210201120,
|
||||
0022102010221120,
|
||||
01201121,
|
||||
#GOGOEND
|
||||
000100200000201010201010, //65
|
||||
|
||||
20012021,
|
||||
0010201120102222,
|
||||
12500000,
|
||||
000000000000000008000000400000400000000000000000,
|
||||
0,
|
||||
#BARLINEOFF
|
||||
0, //71
|
||||
#END
|
||||
|
||||
|
||||
COURSE:Hard
|
||||
LEVEL:6
|
||||
BALLOON:10,7,17,17
|
||||
SCOREINIT:730,3080
|
||||
SCOREDIFF:205
|
||||
|
||||
#START
|
||||
0,
|
||||
70000008,
|
||||
333333,
|
||||
|
||||
#GOGOSTART
|
||||
10101110,
|
||||
10201110,
|
||||
10101110,
|
||||
10201120,
|
||||
|
||||
10101110,
|
||||
10201110,
|
||||
500000000000000000000000000000000000000008000000,
|
||||
7008, //11
|
||||
#GOGOEND
|
||||
|
||||
10201021,
|
||||
01201020,
|
||||
10201021,
|
||||
01201020,
|
||||
|
||||
10201120,
|
||||
10201120,
|
||||
10201021,
|
||||
01201120, //19
|
||||
|
||||
10211021,
|
||||
01201120,
|
||||
10211021,
|
||||
01201120,
|
||||
|
||||
10211120,
|
||||
10211120,
|
||||
10201021,
|
||||
01201120, //27
|
||||
|
||||
10211120,
|
||||
10211120,
|
||||
500000000000000000000000000000000008000000000000,
|
||||
0,
|
||||
|
||||
11122211,
|
||||
1020202011102000,
|
||||
7,
|
||||
08, //35
|
||||
|
||||
11122211,
|
||||
1020202011102000,
|
||||
7,
|
||||
08,
|
||||
|
||||
10012001,
|
||||
01012000,
|
||||
10012020,
|
||||
01012000, //43
|
||||
|
||||
10012001,
|
||||
01012000,
|
||||
11201121,
|
||||
0010200011102000,
|
||||
11201121,
|
||||
0011101010000000, //49
|
||||
|
||||
#GOGOSTART
|
||||
30303021,
|
||||
01210120,
|
||||
1110002010201010,
|
||||
01211121,
|
||||
|
||||
01211121,
|
||||
01211120,
|
||||
10210121,
|
||||
01120220, //57
|
||||
|
||||
30303021,
|
||||
01210120,
|
||||
1110201000102010,
|
||||
01211121,
|
||||
|
||||
01211121,
|
||||
01211121,
|
||||
01201121,
|
||||
#GOGOEND
|
||||
00112022, //65
|
||||
|
||||
01012022,
|
||||
01221221,
|
||||
02500000,
|
||||
000000000000000008000000400000400000000000000000,
|
||||
0,
|
||||
#BARLINEOFF
|
||||
0, //71
|
||||
#END
|
||||
|
||||
|
||||
COURSE:Normal
|
||||
LEVEL:4
|
||||
BALLOON:8,6,11,11,11,10,8
|
||||
SCOREINIT:1130,7660
|
||||
SCOREDIFF:443
|
||||
|
||||
#START
|
||||
#SCROLL 0.75
|
||||
0,
|
||||
9009,
|
||||
8,
|
||||
|
||||
#GOGOSTART
|
||||
1110,
|
||||
1110,
|
||||
1110,
|
||||
2220,
|
||||
|
||||
1110,
|
||||
1110,
|
||||
500000000000000000000000000000000000000008000000,
|
||||
7008, //11
|
||||
#GOGOEND
|
||||
|
||||
11,
|
||||
02,
|
||||
2,
|
||||
0011,
|
||||
|
||||
1120,
|
||||
10102005,
|
||||
000000000000000008000000000000000000000000000000,
|
||||
0, //19
|
||||
|
||||
12,
|
||||
02,
|
||||
1,
|
||||
0011,
|
||||
|
||||
2210,
|
||||
1122,
|
||||
500000000000000000000008000000000000000000000000,
|
||||
0011, //27
|
||||
|
||||
2210,
|
||||
1122,
|
||||
500000000000000000000000000000000008000000000000,
|
||||
0,
|
||||
|
||||
3340,
|
||||
3344,
|
||||
7,
|
||||
08, //35
|
||||
|
||||
3344,
|
||||
3344,
|
||||
7,
|
||||
08,
|
||||
|
||||
12,
|
||||
1120,
|
||||
12,
|
||||
1, //43
|
||||
|
||||
12,
|
||||
1120,
|
||||
5,
|
||||
000000000000000000000000000000000008000000000000,
|
||||
7,
|
||||
08, //49
|
||||
|
||||
#GOGOSTART
|
||||
30303011,
|
||||
01010000,
|
||||
10101022,
|
||||
0012,
|
||||
|
||||
0212,
|
||||
0212,
|
||||
7,
|
||||
000000000000000000080000000000000000000000000000, //57
|
||||
|
||||
30303011,
|
||||
01010000,
|
||||
10110202,
|
||||
0012,
|
||||
|
||||
0212,
|
||||
00201029,
|
||||
000000000000000000000000000000000090000000000008,
|
||||
#GOGOEND
|
||||
0, //65
|
||||
|
||||
1120,
|
||||
10102025,
|
||||
0,
|
||||
000000000008000000000000200000200000000000000000,
|
||||
0,
|
||||
#BARLINEOFF
|
||||
0, //71
|
||||
#END
|
||||
|
||||
|
||||
COURSE:Easy
|
||||
LEVEL:3
|
||||
BALLOON:5,4,7,7,7,7,5
|
||||
SCOREINIT:920,10990
|
||||
SCOREDIFF:468
|
||||
|
||||
#START
|
||||
#SCROLL 0.75
|
||||
0,
|
||||
9009,
|
||||
8,
|
||||
|
||||
#GOGOSTART
|
||||
11,
|
||||
1110,
|
||||
11,
|
||||
2220,
|
||||
|
||||
11,
|
||||
1110,
|
||||
500000000000000000000000000000000000000008000000,
|
||||
7008, //11
|
||||
#GOGOEND
|
||||
|
||||
11,
|
||||
01,
|
||||
1,
|
||||
0,
|
||||
|
||||
1110,
|
||||
10101005,
|
||||
000000000000000008000000000000000000000000000000,
|
||||
0, //19
|
||||
|
||||
11,
|
||||
02,
|
||||
2,
|
||||
0,
|
||||
|
||||
1110,
|
||||
2220,
|
||||
500000000000000000000008000000000000000000000000,
|
||||
0, //27
|
||||
|
||||
1110,
|
||||
2222,
|
||||
500000000000000000000000000000000008000000000000,
|
||||
0,
|
||||
|
||||
3330,
|
||||
3344,
|
||||
7,
|
||||
08, //35
|
||||
|
||||
3330,
|
||||
3344,
|
||||
7,
|
||||
08,
|
||||
|
||||
1,
|
||||
22,
|
||||
1,
|
||||
2, //43
|
||||
|
||||
1,
|
||||
22,
|
||||
5,
|
||||
000000000000000000000000000000000008000000000000,
|
||||
7,
|
||||
08, //49
|
||||
|
||||
#GOGOSTART
|
||||
30303004,
|
||||
00040000,
|
||||
6,
|
||||
000008000000000000000000000000000000100000000000,
|
||||
|
||||
0101,
|
||||
0101,
|
||||
7,
|
||||
000000000000000000080000000000000000000000000000, //57
|
||||
|
||||
30303004,
|
||||
00040000,
|
||||
6,
|
||||
000008000000000000000000000000000000100000000000,
|
||||
|
||||
0101,
|
||||
00100019,
|
||||
000000000000000000000000000000000090000000000008,
|
||||
#GOGOEND
|
||||
0, //65
|
||||
|
||||
11,
|
||||
20202005,
|
||||
0,
|
||||
000008000000000000000000300000000000000000000000,
|
||||
0,
|
||||
#BARLINEOFF
|
||||
0, //71
|
||||
#END
|
||||
Reference in New Issue
Block a user