tja
This commit is contained in:
614
tja/471.tja
Normal file
614
tja/471.tja
Normal file
@@ -0,0 +1,614 @@
|
||||
//TJADB Project
|
||||
TITLE:Zero no Rhapsody
|
||||
TITLEJA:零の狂詩曲
|
||||
SUBTITLE:--Kyo feat. Sariyajin
|
||||
SUBTITLEJA:
|
||||
BPM:183
|
||||
WAVE:Zero no Rhapsody.ogg
|
||||
OFFSET:-1.698
|
||||
DEMOSTART:57.249
|
||||
|
||||
//shinuchi: 3760/2640/1590/1140
|
||||
|
||||
COURSE:Oni
|
||||
LEVEL:9
|
||||
BALLOON:
|
||||
SCOREINIT:390,1190
|
||||
SCOREDIFF:95
|
||||
|
||||
#START
|
||||
#BARLINEOFF
|
||||
#MEASURE 2/4
|
||||
11111020,
|
||||
#BARLINEON
|
||||
#MEASURE 4/4
|
||||
0010202211102010,
|
||||
2010202211112010,
|
||||
0010202211102011,
|
||||
2022101120221040,
|
||||
|
||||
0010202211102010,
|
||||
2010202211112040,
|
||||
0022101120221040,
|
||||
0022101120300000,
|
||||
0, //10
|
||||
|
||||
10121210,
|
||||
1022102010201110,
|
||||
10121210,
|
||||
1022102010201110,
|
||||
|
||||
10121210,
|
||||
1022102010221020,
|
||||
1122,
|
||||
3030003000111111, //18
|
||||
|
||||
1020102210102210,
|
||||
2010221010202022,
|
||||
1020102210102210,
|
||||
2010221010202022,
|
||||
|
||||
1020102210102210,
|
||||
4433,
|
||||
5,
|
||||
000000000000000008000000000000000000000000000000, //26
|
||||
|
||||
10012001,
|
||||
01012000,
|
||||
10012001,
|
||||
01012000,
|
||||
|
||||
10012001,
|
||||
01012000,
|
||||
1000001020002012,
|
||||
2010201220111111, //34
|
||||
|
||||
2010201011102011,
|
||||
1010201012102011,
|
||||
1010201011102011,
|
||||
1010201012102011,
|
||||
|
||||
2010201120112010,
|
||||
2010201120112010,
|
||||
2010201121112040,
|
||||
0011221120300011,
|
||||
2211103000300030, //43
|
||||
|
||||
#GOGOSTART
|
||||
0010202011112010,
|
||||
0010202011221020,
|
||||
0010202011112011,
|
||||
2022101120221040,
|
||||
|
||||
0010201110102020,
|
||||
1010201000112020,
|
||||
1011201111202030,
|
||||
0010203000112210, //51
|
||||
|
||||
0010202011112010,
|
||||
0010202011221010,
|
||||
0010202011112011,
|
||||
2022101120221040,
|
||||
|
||||
0010201110102210,
|
||||
0010201010112020,
|
||||
1011201111202030,
|
||||
0030300000111120, //59
|
||||
#GOGOEND
|
||||
|
||||
00200201,
|
||||
000000100000200000500000000000000000000008000000,
|
||||
1011202000101020,
|
||||
0020102210201022,
|
||||
|
||||
2000111110200020,
|
||||
100000200000100010002000100200100000200000500000,
|
||||
000000000008000000100100200000000000200200100100,
|
||||
2222111122112211,
|
||||
2212112212121122,
|
||||
500000000000000000000000000000000000000008000000, //69
|
||||
|
||||
1010202210102010,
|
||||
0010202210102000,
|
||||
1010202210102010,
|
||||
0010202210102020,
|
||||
|
||||
01500000,
|
||||
000000000008000000000000100000100000200000100000,
|
||||
01210125,
|
||||
000000000000000000000000000008000000000000100000,
|
||||
0010201000102011,
|
||||
2011111111200030, //79
|
||||
|
||||
00000003,
|
||||
00000003,
|
||||
0000001110101030,
|
||||
03030303, //83
|
||||
|
||||
#GOGOSTART
|
||||
0010201110102020,
|
||||
1010201000112020,
|
||||
1011201111202030,
|
||||
0010203000112210,
|
||||
|
||||
2011202211112210,
|
||||
2011202211221110,
|
||||
2011202211112011,
|
||||
2022101120221040,
|
||||
|
||||
0010201110102210,
|
||||
0010201010112020,
|
||||
1011201111202030,
|
||||
0030300000111120, //95
|
||||
#GOGOEND
|
||||
|
||||
0000202211102010,
|
||||
2010202211112010,
|
||||
0010202211102011,
|
||||
2022101120221040,
|
||||
|
||||
0010202211102010,
|
||||
2010202211112040,
|
||||
0022101120221040,
|
||||
0022101120300000, //103
|
||||
|
||||
1010102000201120,
|
||||
0,
|
||||
0,
|
||||
2210000000000000,
|
||||
0,
|
||||
0, //109
|
||||
#END
|
||||
|
||||
|
||||
COURSE:Hard
|
||||
LEVEL:7
|
||||
BALLOON:16,16
|
||||
SCOREINIT:440,1720
|
||||
SCOREDIFF:105
|
||||
|
||||
#START
|
||||
#BARLINEOFF
|
||||
#MEASURE 2/4
|
||||
0001,
|
||||
#BARLINEON
|
||||
#MEASURE 4/4
|
||||
01201121,
|
||||
01212121,
|
||||
0010200010102011,
|
||||
1011101110111020,
|
||||
|
||||
01201121,
|
||||
0010201020102011,
|
||||
1011101110111022,
|
||||
2022202220200000,
|
||||
0, //10
|
||||
|
||||
10121210,
|
||||
10121011,
|
||||
10121210,
|
||||
12121011,
|
||||
|
||||
10121210,
|
||||
12101210,
|
||||
1122,
|
||||
33030000, //18
|
||||
|
||||
10121121,
|
||||
01211222,
|
||||
10121121,
|
||||
01211222,
|
||||
|
||||
10121121,
|
||||
2211,
|
||||
5,
|
||||
000000000000000008000000000000000000000000000000, //26
|
||||
|
||||
10012001,
|
||||
01012000,
|
||||
10012001,
|
||||
01012000,
|
||||
|
||||
10012001,
|
||||
01012000,
|
||||
10012021,
|
||||
2010001110111000, //34
|
||||
|
||||
1000200011102010,
|
||||
1000200011102010,
|
||||
1000200011102010,
|
||||
1000200011102010,
|
||||
|
||||
21212221,
|
||||
21212221,
|
||||
21212225,
|
||||
000000000000000000000008000000300000000000300000,
|
||||
00030303, //43
|
||||
|
||||
#GOGOSTART
|
||||
0010200011100010,
|
||||
0010200022200010,
|
||||
0010200011100011,
|
||||
1011101110111040,
|
||||
|
||||
01200122,
|
||||
10210125,
|
||||
000000000000000000000000000000000008000000300000,
|
||||
0010203000111030, //51
|
||||
|
||||
0010200011100010,
|
||||
0010200022200010,
|
||||
0010200011100011,
|
||||
1011101110111030,
|
||||
|
||||
05,
|
||||
000000000008000000000000700000000000000000000000,
|
||||
000000000000000080000300,
|
||||
03300004, //59
|
||||
#GOGOEND
|
||||
|
||||
00200201,
|
||||
000000100000200000500000000000000000000008000000,
|
||||
1011101000101020,
|
||||
02121212,
|
||||
|
||||
0000101110100010,
|
||||
1000101011111050,
|
||||
000000000008000000100100100000000000200200200000,
|
||||
1110222011102220,
|
||||
1111100022222000,
|
||||
500000000000000000000000000000000000000008000000, //69
|
||||
|
||||
11201121,
|
||||
01221120,
|
||||
11210121,
|
||||
01221125,
|
||||
|
||||
0,
|
||||
000000000008000000000000100000100000200000100000,
|
||||
01210125,
|
||||
000000000000000000000000000008000000000000100000,
|
||||
0010201000102011,
|
||||
1011101110200030, //79
|
||||
|
||||
00000003,
|
||||
00000003,
|
||||
0000001110101030,
|
||||
03030303, //83
|
||||
|
||||
#GOGOSTART
|
||||
00400122,
|
||||
10210125,
|
||||
000000000000000000000000000000000008000000300000,
|
||||
0010203000111030,
|
||||
|
||||
0010202011100010,
|
||||
0010202022200010,
|
||||
0010202011100011,
|
||||
1011101110111030,
|
||||
|
||||
05,
|
||||
000000000008000000000000700000000000000000000000,
|
||||
000000000000000080000300,
|
||||
03300004, //95
|
||||
#GOGOEND
|
||||
|
||||
00001121,
|
||||
01212121,
|
||||
0010200010102011,
|
||||
1011101110111020,
|
||||
|
||||
01201121,
|
||||
0010201020102011,
|
||||
1011101110111022,
|
||||
2022202220200000, //103
|
||||
|
||||
1010101000101110,
|
||||
0,
|
||||
0,
|
||||
2220000000000000,
|
||||
0,
|
||||
0, //109
|
||||
#END
|
||||
|
||||
|
||||
COURSE:Normal
|
||||
LEVEL:6
|
||||
BALLOON:12,10,10
|
||||
SCOREINIT:570,3350
|
||||
SCOREDIFF:145
|
||||
|
||||
#START
|
||||
#BARLINEOFF
|
||||
#MEASURE 2/4
|
||||
0,
|
||||
#BARLINEON
|
||||
#MEASURE 4/4
|
||||
00001111,
|
||||
01010101,
|
||||
00001111,
|
||||
01010102,
|
||||
|
||||
00001111,
|
||||
01010103,
|
||||
03030304,
|
||||
04040400,
|
||||
0, //10
|
||||
|
||||
1111,
|
||||
1110,
|
||||
1111,
|
||||
1110,
|
||||
|
||||
1111,
|
||||
1212,
|
||||
1122,
|
||||
33030000, //18
|
||||
|
||||
10101101,
|
||||
01011000,
|
||||
10101101,
|
||||
01011000,
|
||||
|
||||
10101100,
|
||||
4433,
|
||||
5,
|
||||
000000000000000008000000000000000000000000000000, //26
|
||||
|
||||
20022002,
|
||||
02022000,
|
||||
20022002,
|
||||
02022000,
|
||||
|
||||
20022002,
|
||||
02022000,
|
||||
7,
|
||||
000000000000000000080000000000000000000000000000, //34
|
||||
|
||||
1202,
|
||||
10200220,
|
||||
1202,
|
||||
10200220,
|
||||
|
||||
1122,
|
||||
10102025,
|
||||
0,
|
||||
000000000000000000000008000000300000000000300000,
|
||||
00030303, //43
|
||||
|
||||
#GOGOSTART
|
||||
00101102,
|
||||
00202201,
|
||||
00101103,
|
||||
03030303,
|
||||
|
||||
00000111,
|
||||
10110115,
|
||||
000000000000000000000000000000000008000000300000,
|
||||
00030003, //51
|
||||
|
||||
00101102,
|
||||
00202201,
|
||||
00101103,
|
||||
03030304,
|
||||
|
||||
05,
|
||||
000000000008000000000000700000000000000000000000,
|
||||
000000000000000080000300,
|
||||
03300002, //59
|
||||
#GOGOEND
|
||||
|
||||
00200201,
|
||||
00100102,
|
||||
00200201,
|
||||
00100102,
|
||||
|
||||
00200201,
|
||||
00100100,
|
||||
2222,
|
||||
5,
|
||||
0,
|
||||
000000000000000000000000000000000008000000000000, //69
|
||||
|
||||
1212,
|
||||
1212,
|
||||
10110101,
|
||||
00000115,
|
||||
|
||||
0,
|
||||
000000000008000000000000300000000000000000500000,
|
||||
0,
|
||||
000000000000000000000000000008000000000000600000,
|
||||
0,
|
||||
000000000000000000000000000008000000000000300000, //79
|
||||
|
||||
00000003,
|
||||
00000003,
|
||||
00000003,
|
||||
03030303, //83
|
||||
|
||||
#GOGOSTART
|
||||
00400111,
|
||||
10110115,
|
||||
000000000000000000000000000000000008000000300000,
|
||||
00030003,
|
||||
|
||||
00101102,
|
||||
00202201,
|
||||
00101103,
|
||||
03030303,
|
||||
|
||||
05,
|
||||
000000000008000000000000700000000000000000000000,
|
||||
000000000000000080000300,
|
||||
03300004, //95
|
||||
#GOGOEND
|
||||
|
||||
00001111,
|
||||
01010101,
|
||||
00001111,
|
||||
01010102,
|
||||
|
||||
00001111,
|
||||
01010103,
|
||||
03030304,
|
||||
04040400, //103
|
||||
|
||||
11110104,
|
||||
0,
|
||||
0,
|
||||
0,
|
||||
0,
|
||||
0, //109
|
||||
#END
|
||||
|
||||
|
||||
COURSE:Easy
|
||||
LEVEL:4
|
||||
BALLOON:10,12,8,8
|
||||
SCOREINIT:440,4780
|
||||
SCOREDIFF:98
|
||||
|
||||
#START
|
||||
#BARLINEOFF
|
||||
#MEASURE 2/4
|
||||
0001,
|
||||
#BARLINEON
|
||||
#MEASURE 4/4
|
||||
00100001,
|
||||
01010101,
|
||||
00000002,
|
||||
02020202,
|
||||
|
||||
00000001,
|
||||
01010102,
|
||||
02020201,
|
||||
01010100,
|
||||
0, //10
|
||||
|
||||
11,
|
||||
1110,
|
||||
11,
|
||||
1110,
|
||||
|
||||
12,
|
||||
12,
|
||||
500000000000000000000008000000000000000000000000,
|
||||
30030000, //10
|
||||
|
||||
10101001,
|
||||
01011000,
|
||||
10101001,
|
||||
01011000,
|
||||
|
||||
1110,
|
||||
4433,
|
||||
5,
|
||||
000000000000000008000000000000000000000000000000, //26
|
||||
|
||||
22,
|
||||
2220,
|
||||
22,
|
||||
2220,
|
||||
|
||||
22,
|
||||
2220,
|
||||
7,
|
||||
000000000000000000080000000000000000000000000000, //34
|
||||
|
||||
1202,
|
||||
1200,
|
||||
1202,
|
||||
1200,
|
||||
|
||||
1120,
|
||||
10102007,
|
||||
0,
|
||||
00000800,
|
||||
00000001, //43
|
||||
|
||||
#GOGOSTART
|
||||
00101001,
|
||||
00101001,
|
||||
00101003,
|
||||
03030303,
|
||||
|
||||
00000500,
|
||||
0,
|
||||
000000000000000000000000000008000000000000300000,
|
||||
00030003, //51
|
||||
|
||||
00101001,
|
||||
00101001,
|
||||
00101003,
|
||||
03030303,
|
||||
|
||||
05,
|
||||
000000000008000000000000700000000000000000000000,
|
||||
000000000000000080000300,
|
||||
03300000, //59
|
||||
#GOGOEND
|
||||
|
||||
00200200,
|
||||
00100100,
|
||||
00200200,
|
||||
00100100,
|
||||
|
||||
00200200,
|
||||
00100100,
|
||||
2222,
|
||||
5,
|
||||
0,
|
||||
000000000000000000000000000008000000000000000000, //69
|
||||
|
||||
1210,
|
||||
1210,
|
||||
1212,
|
||||
10201005,
|
||||
|
||||
0,
|
||||
000000000008000000000000000000000000000000500000,
|
||||
0,
|
||||
000000000000000000000000000008000000000000600000,
|
||||
0,
|
||||
000000000000000000000008000000000000000000300000, //79
|
||||
|
||||
00000003,
|
||||
00000003,
|
||||
00000003,
|
||||
03030303, //83
|
||||
|
||||
#GOGOSTART
|
||||
00400500,
|
||||
0,
|
||||
000000000000000000000000000008000000000000300000,
|
||||
00030003,
|
||||
|
||||
00101002,
|
||||
00202001,
|
||||
00101003,
|
||||
03030303,
|
||||
|
||||
05,
|
||||
000000000008000000000000700000000000000000000000,
|
||||
000000000000000080000300,
|
||||
03300004, //95
|
||||
#GOGOEND
|
||||
|
||||
00000001,
|
||||
01010101,
|
||||
00000002,
|
||||
02020202,
|
||||
|
||||
00000001,
|
||||
01010102,
|
||||
02020201,
|
||||
01010100, //103
|
||||
|
||||
00000004,
|
||||
0,
|
||||
0,
|
||||
0,
|
||||
0,
|
||||
0, //109
|
||||
#END
|
||||
Reference in New Issue
Block a user