This commit is contained in:
2026-03-04 23:59:27 +09:00
parent 6e0312f5b4
commit 4b4e2b8c98
1128 changed files with 668765 additions and 0 deletions

444
tja/480.tja Normal file
View File

@@ -0,0 +1,444 @@
//TJADB Project
TITLE:Mahou o Kakete! -Old Audio/Chart-
TITLEJA:魔法をかけて!
SUBTITLE:--Satoru Kousaki feat. IM@S ALLSTARS/THE iDOLM@STER
SUBTITLEJA:旧音源・譜面 「アイドルマスター」より
BPM:150
WAVE:Mahou o Kakete! -Old Audio Chart-.ogg
OFFSET:-1.934
DEMOSTART:53.108
COURSE:Oni
LEVEL:6
BALLOON:4,4
SCOREINIT:680
SCOREDIFF:100
#START
1000200011102010,
0010001000102220,
1000200011102010,
11211121,
1000200011102010,
0010001000102220,
1000200011102010,
11211121, //8
1111,
12121212,
1111,
12021222,
1111,
12121212,
1000200011102000,
1010201000222000, //16
1111,
12121212,
1111,
12021222,
1111,
12121212,
1000200011102010,
1010201000222000, //24
10012010,
10012010,
10012010,
1000201000112000,
1010202010102220,
1010202010102220,
12120112,
1111, //32
#GOGOSTART
1020111010102010,
1020111010102010,
3000300022201020,
1000100022201020,
1000200011102020,
1000200011102020,
10201121,
1020201022202220, //40
1020111010102010,
1020111010102010,
3000300022201020,
1000100022201020,
1000200011102020,
1000200011102020,
10201121,
1000001022202220, //48
#GOGOEND
3030400011102010,
0010001000102220,
1000200011102010,
1000200011102010,
1022102010221020,
11221122,
1120221011112222,
2, //56
#GOGOSTART
1020112011102010,
1020112011102020,
3000300022201020,
1000100022201020,
700000000000080000000000100100100000200000100000,
1000200011102010,
10201121,
1020201022201110, //64
1020112011102010,
1020112011102020,
3000300022201020,
1000100022201020,
700000000000080000000000100100100000200000100000,
1000200011102010,
10201121,
1000001022202220,//72
#GOGOEND
3030400011102010,
0010001000102220,
0010222010202030,
0,
0, //77
#END
COURSE:Hard
LEVEL:5
BALLOON:6,6
SCOREINIT:590
SCOREDIFF:120
#START
10201121,
0010001000102220,
10201120,
11201120,
1000200011102010,
0010001000102220,
10201120,
11201120, //8
1111,
12021202,
1111,
12021202,
1111,
12021202,
10201120,
1010201000222000, //16
1111,
12021202,
1111,
12021202,
1111,
12021202,
10201120,
1010201000222000, //24
10012010,
10012010,
10012010,
10210120,
1000200010102220,
1000200010102220,
12120112,
1, //32
#GOGOSTART
1020100011102000,
1020100011102000,
3300,
1000100022202000,
10201120,
10201120,
500000000000000000000008000000000000100000000000,
1020201022202220, //36
1020100011102000,
1020100011102000,
3300,
1000100022202000,
10201120,
10201120,
7000000000080000,
10011010, //48
#GOGOEND
33301121,
0010001000102220,
10201121,
0010001000102220,
10201120,
10201120,
10101111,
500000000000000000000000000000000008000000000000, //56
#GOGOSTART
1020100011102000,
1020100011102000,
3300,
1000100022202000,
10201120,
10201120,
500000000000000000000008000000000000100000000000,
1020201022202220, //64
1020100011102000,
1020100011102000,
3300,
1000100022202000,
10201120,
10201120,
7000000000080000,
30011010, //72
#GOGOEND
3030300011102010,
0010001000102220,
01221223,
0,
0, //77
#END
COURSE:Normal
LEVEL:4
BALLOON:6,6
SCOREINIT:580
SCOREDIFF:210
#START
10201100,
1212,
10010000,
1212,
10201100,
1212,
10010000,
500000000000000000000000000000000008000000000000, //8
1111,
12,
1111,
12,
1111,
12,
1200,
10110000, //16
1111,
12,
1111,
12,
1111,
12,
1200,
10110000, //24
1021,
12,
1021,
10220000,
10101100,
10101100,
1100,
500000000000000000000000000000000008000000000000, //32
#GOGOSTART
1110,
11,
3300,
1200,
10001100,
10001100,
500000000000000000000008000000000000000000000000,
10110000, //40
1110,
11,
3300,
1200,
10001100,
10001100,
70000800,
3, //48
#GOGOEND
33300000,
1212,
12,
1212,
10201100,
1212,
1111,
500000000000000000000000000000000008000000000000, //56
#GOGOSTART
1110,
11,
3300,
10201100,
10001100,
10001100,
500000000000000000000008000000000000000000000000,
10110000, //64
1110,
11,
3300,
10201100,
10001100,
10001100,
70000800,
3, //72
#GOGOEND
33300000,
1212,
10101103,
0,
0, //77
#END
COURSE:Easy
LEVEL:4
BALLOON:
SCOREINIT:670
SCOREDIFF:200
#START
10001100,
1210,
1,
1210,
10001100,
1210,
1,
1210, //8
11,
12,
11,
12,
11,
12,
1100,
1100, //16
11,
12,
11,
12,
11,
12,
1100,
1100, //24
12,
1,
12,
1,
10001100,
10001100,
1100,
500000000000000000000000000008000000000000000000, //32
#GOGOSTART
1110,
1110,
1200,
1200,
11,
11,
500000000000000000000008000000000000000000000000,
1, //40
1110,
1110,
1200,
1200,
11,
11,
500000000000000000000000000008000000000000000000,
1, //48
#GOGOEND
10001100,
1210,
1,
1210,
10001100,
1212,
1,
500000000000000000000000000008000000000000000000, //56
#GOGOSTART
1110,
1110,
1200,
1200,
11,
11,
500000000000000000000008000000000000000000000000,
1, //64
1110,
1110,
1200,
1200,
11,
11,
500000000000000000000000000008000000000000000000,
1, //72
#GOGOEND
10001100,
1210,
10001003,
0,
0, //77
#END