This commit is contained in:
2026-03-04 23:59:27 +09:00
parent 6e0312f5b4
commit 4b4e2b8c98
1128 changed files with 668765 additions and 0 deletions

689
tja/487.tja Normal file
View File

@@ -0,0 +1,689 @@
//TJADB Project
TITLE:Lassen Gorelai
TITLEJA:ラッスンゴレライ
SUBTITLE:--8.6-second Bazooka
SUBTITLEJA:8.6秒バズーカー
BPM:167
WAVE:Lassen Gorelai.ogg
OFFSET:-1.716
DEMOSTART:10.338
//shinuchi: 4900/3490/2140/1540/1100
COURSE:Edit
LEVEL:9
BALLOON:
SCOREINIT:390,1250
SCOREDIFF:95
#START
2010121100004000,
2010121100004000,
2010121120002000,
2010121120002000,
1020102012111020,
1012111000004000,
1022102010221020,
1022101110221020, //8
2022102010221020,
1011102011221122,
1020111210221022,
1020112010201110,
1122102011121020,
1120102011112000,
2010121100004000,
2010121100004000, //16
1011112010111120,
1000100011112010,
1022102010221020,
1022101110221020,
2022102010221020,
1011201011221122,
1020111210221022,
1020112010201110, //24
1122202011122020,
1120102011112000,
2010121100004000,
2010121100004000,
1011100020002000,
1011101020002000,
1110100020002000,
#SCROLL 3
#GOGOSTART
44403343, //32
#GOGOEND
#SCROLL 1
33030333,
00444030,
1022102010221020,
1022101110221020,
2022102010221020,
1011102011221122,
1020111210221022,
1020112010201110, //40
30403033,
03403040,
#SCROLL 3
#GOGOSTART
44403343,
44403343,
#GOGOEND
#SCROLL 1
30334043,
#SCROLL 3
#GOGOSTART
44403343,
#GOGOEND
#SCROLL 1
1022102010221020,
1022101110221000, //48
#SCROLL 3
#GOGOSTART
44403343,
#GOGOEND
#SCROLL 1
1022101110221020,
2022102010221020,
2220222011222000,
#SCROLL 3
#GOGOSTART
44403343,
44403343,
#GOGOEND
#SCROLL 1
33304440,
#SCROLL 3
#GOGOSTART
44403343, //56
#GOGOEND
#SCROLL 1
2022112010221020,
1022102010221020,
2010121100004000,
2010121100004000,
3020222020202220,
3020222022202220,
3020222030202220,
3020222030202220, //64
3022102210221022,
1022102210221022,
1120102011201020,
4440,
1011221010112210,
1122221111221212,
20222022,
20222044, //72
1222102010221020,
1222101110221020,
1222102010221020,
1211102011221122,
1222101210221120,
1222101110221220,
1222101210221120,
1211102011112222, //80
1222101210221120,
1222101110221220,
1222101210221120,
1211102211211210,
3,
20220000,
0,
0, //88
#END
COURSE:Oni
LEVEL:7
BALLOON:
SCOREINIT:530,1780
SCOREDIFF:130
#START
1010101100004000,
1010101100004000,
1010101120002000,
1010101120002000,
1000100010111000,
1010111000004000,
1022102010221020,
1022102010002000, //8
2000100010221020,
1000102022022020,
1020111010201000,
1020111010201000,
1120100011201000,
1120100011204000,
1010101100004000,
1010101100004000, //16
1011101010001010,
1000100010111000,
1022102010221020,
1022102010002000,
2000100010221020,
1022102010002000,
1020111010201000,
1020111010201000, //24
1120200011202000,
1120100011204000,
1010101100004000,
1010101100004000,
1011100020002000,
1011101020002000,
1110100020002000,
#SCROLL 3
#GOGOSTART
600000000000000000000000000000000008000000000000, //32
#GOGOEND
#SCROLL 1
33030333,
00444030,
1022102010221020,
1022102010002000,
2000100010221020,
1022102010002000,
1020111010201000,
1020111010201000, //40
30403033,
03403040,
#SCROLL 3
#GOGOSTART
600000000000000000000000000000000008000000000000,
600000000000000000000000000000000008000000000000,
#GOGOEND
#SCROLL 1
30334043,
#SCROLL 3
#GOGOSTART
600000000000000000000000000000000008000000000000,
#GOGOEND
#SCROLL 1
44040404,
04334430, //48
#SCROLL 3
#GOGOSTART
600000000000000000000000000000000008000000000000,
#GOGOEND
#SCROLL 1
44030433,
2000100010221000,
1120112011202000,
#SCROLL 3
#GOGOSTART
600000000000000000000000000000000008000000000000,
600000000000000000000000000000000008000000000000,
#GOGOEND
#SCROLL 1
33304440,
#SCROLL 3
#GOGOSTART
600000000000000000000000000000000008000000000000, //56
#GOGOEND
#SCROLL 1
2022102000221020,
2022102020221020,
1010101100004000,
1010101100004000,
3222,
3222,
3232,
3232, //64
32323232,
32323232,
32323232,
2211,
11111111,
1111111111111111,
20222022,
20222022, //72
1022102010221020,
1022102010201000,
1022102010221020,
1120112020201000,
1220102012201020,
1220102010001000,
1022102010221020,
1022102010002000, //80
1022102010221020,
1022102010002000,
1120102011201020,
1022102011201020,
3,
20220000,
0,
0, //88
#END
COURSE:Hard
LEVEL:5
BALLOON:4,4
SCOREINIT:560,2700
SCOREDIFF:140
#START
1010101100004000,
1010101100004000,
1010101100002000,
1010101100002000,
10101110,
11100040,
12101210,
12110000, //8
10101210,
10121000,
11101210,
10121010,
11101110,
11101040,
1010101100004000,
1010101100004000, //16
11011010,
10101110,
12101210,
12110000,
10101210,
10121000,
11101210,
10121010, //24
12201220,
11101040,
1010101100004000,
1010101100004000,
11102020,
11112020,
11102020,
#GOGOSTART
600000000000000000000000000000000008000000000000, //32
#GOGOEND
33030333,
00443040,
70810007,
08010000,
10101210,
10121000,
11101210,
10121010, //40
30403033,
03403040,
#GOGOSTART
600000000000000000000000000000000008000000000000,
600000000000000000000000000000000008000000000000,
#GOGOEND
3343,
#GOGOSTART
600000000000000000000000000000000008000000000000,
#GOGOEND
44040404,
04304030, //48
#GOGOSTART
600000000000000000000000000000000008000000000000,
#GOGOEND
44030330,
20101210,
2214,
#GOGOSTART
600000000000000000000000000000000008000000000000,
600000000000000000000000000000000008000000000000,
#GOGOEND
3333,
#GOGOSTART
600000000000000000000000000000000008000000000000, //56
#GOGOEND
44040430,
44304430,
1010101100004000,
1010101100004000,
3,
3,
33,
33, //64
3333,
3333,
3333,
2211,
11111111,
500000000000000000000000000000000000000000000008,
02,
20222000, //72
12111012,
11100110,
10121110,
12111040,
12111010,
10111040,
12101210,
12110000, //80
12101210,
12110000,
10101110,
22112210,
3,
20220000,
0,
0, //88
#END
COURSE:Normal
LEVEL:5
BALLOON:3,3,3,3,3,3,3,3,3,3
SCOREINIT:770,4620
SCOREDIFF:188
#START
30700800,
30700800,
10700800,
10700800,
10101110,
1104,
11101110,
500000000000000000000008000000000000000000000000, //8
10001110,
1220,
10111010,
10111000,
1111,
1220,
10700800,
10700800, //16
500000000000000000000000000000000008000000000000,
2222,
11101110,
500000000000000000000008000000000000000000000000,
10001110,
1220,
10111010,
10111000, //24
1111,
1220,
10700800,
10700800,
1100,
1100,
1100,
#GOGOSTART
600000000000000000000000000000000008000000000000, //32
#GOGOEND
3333,
0220,
500000000000000000000008000000000000000000500000,
000000000000000000000008000000000000000000000000,
10001110,
1220,
10111010,
10111000, //40
33,
3440,
#GOGOSTART
600000000000000000000000000000000008000000000000,
600000000000000000000000000000000008000000000000,
#GOGOEND
3333,
#GOGOSTART
600000000000000000000000000000000008000000000000,
#GOGOEND
0404,
0404, //48
#GOGOSTART
600000000000000000000000000000000008000000000000,
#GOGOEND
0404,
10101110,
1220,
#GOGOSTART
600000000000000000000000000000000008000000000000,
600000000000000000000000000000000008000000000000,
#GOGOEND
3333,
#GOGOSTART
600000000000000000000000000000000008000000000000, //56
#GOGOEND
0404,
0404,
30700800,
30700800,
3,
3,
33,
33, //64
3333,
3330,
33,
2220,
11101110,
500000000000000000000000000000000000000000000008,
02,
2220, //72
10111010,
10111000,
1111,
1120,
10111010,
1220,
11101110,
500000000000000000000008000000000000000000000000, //80
11101110,
500000000000000000000008000000000000000000000000,
1111,
11102020,
3,
0,
0,
0, //88
#END
COURSE:Easy
LEVEL:3
BALLOON:
SCOREINIT:580,6470
SCOREDIFF:183
#START
600000000000000000000008000000000000000000000000,
600000000000000000000008000000000000000000000000,
500000000000000000000008000000000000000000000000,
500000000000000000000008000000000000000000000000,
11,
1110,
11,
1, //8
1110,
12,
11,
1110,
11,
12,
500000000000000000000008000000000000000000000000,
500000000000000000000008000000000000000000000000, //16
11,
1110,
11,
1,
1110,
12,
11,
1110, //24
11,
12,
500000000000000000000008000000000000000000000000,
500000000000000000000008000000000000000000000000,
1100,
1100,
1100,
#GOGOSTART
600000000000000000000000000000000008000000000000, //32
#GOGOEND
3333,
02,
11,
1110,
1110,
12,
1110,
1110, //40
33,
34,
#GOGOSTART
600000000000000000000000000000000008000000000000,
600000000000000000000000000000000008000000000000,
#GOGOEND
3333,
#GOGOSTART
600000000000000000000000000000000008000000000000,
#GOGOEND
33,
34, //48
#GOGOSTART
600000000000000000000000000000000008000000000000,
#GOGOEND
04,
1110,
12,
#GOGOSTART
600000000000000000000000000000000008000000000000,
600000000000000000000000000000000008000000000000,
#GOGOEND
3333,
#GOGOSTART
600000000000000000000000000000000008000000000000, //56
#GOGOEND
33,
33,
600000000000000000000008000000000000000000000000,
600000000000000000000008000000000000000000000000,
3,
3,
33,
33, //64
3333,
3330,
33,
44,
1111,
500000000000000000000000000000000000000000000008,
02,
22, //72
1110,
1110,
11,
12,
1110,
1110,
11,
12, //80
11,
12,
1110,
1111,
3,
0,
0,
0, //88
#END