tja
This commit is contained in:
602
tja/488.tja
Normal file
602
tja/488.tja
Normal file
@@ -0,0 +1,602 @@
|
||||
//TJADB Project
|
||||
TITLE:Shugaku Travelers
|
||||
TITLEJA:シューガク トラベラーズ
|
||||
SUBTITLE:--Shock Tarou feat. Yuka Uchiyae
|
||||
SUBTITLEJA:うちやえゆか
|
||||
BPM:172
|
||||
WAVE:Shugaku Travelers.ogg
|
||||
OFFSET:-1.606
|
||||
DEMOSTART:5.784
|
||||
|
||||
//Shinuchi: 4000/2640/2160/1270
|
||||
|
||||
COURSE:Oni
|
||||
LEVEL:8
|
||||
BALLOON:18,30,30
|
||||
SCOREINIT:410,1370
|
||||
SCOREDIFF:98
|
||||
|
||||
#START
|
||||
3022203000221030,
|
||||
0022107000000000,
|
||||
0000008022112000, //3
|
||||
|
||||
1000202220100010,
|
||||
0010201110102000,
|
||||
1000202220100010,
|
||||
0010202210102000,
|
||||
|
||||
1000202220100010,
|
||||
0010201110102000,
|
||||
1000202210111010,
|
||||
0010400022102000, //11
|
||||
|
||||
1000202220100010,
|
||||
0010201110102000,
|
||||
1000202220100010,
|
||||
0010202210002022,
|
||||
|
||||
12212101,
|
||||
0011201000102000,
|
||||
1111202222100011,
|
||||
#MEASURE 6/4
|
||||
100100200000200000500000000000000000000000000008000000100000400000000000, //19
|
||||
|
||||
#MEASURE 4/4
|
||||
#GOGOSTART
|
||||
1110201122102012,
|
||||
1110201122102012,
|
||||
1110201122102012,
|
||||
1110201110102000,
|
||||
|
||||
1110201122102012,
|
||||
1110201122102011,
|
||||
1110222220111110,
|
||||
30230040, //27
|
||||
|
||||
1000201110002000,
|
||||
1000201110201020,
|
||||
1111201020100010,
|
||||
0011201000104000,
|
||||
|
||||
1120202222101022,
|
||||
2210101111202050,
|
||||
000000000000000000000000000000000000000008000000,
|
||||
21010140, //35
|
||||
#GOGOEND
|
||||
|
||||
1000101120100010,
|
||||
0010001120101000,
|
||||
1000101120100010,
|
||||
0010101120001000,
|
||||
|
||||
1000101120100010,
|
||||
0010001120101000,
|
||||
1000101120101010,
|
||||
0000400012221212, //43
|
||||
|
||||
1000202220100010,
|
||||
0010202122102000,
|
||||
1000202220100010,
|
||||
0011202210002022,
|
||||
|
||||
1000202220100010,
|
||||
0011201202102000,
|
||||
1111202222100011,
|
||||
#MEASURE 6/4
|
||||
100100200000200000500000000000000000000000000000000000000008000000000000,
|
||||
#BARLINEOFF
|
||||
#MEASURE 4/4
|
||||
222111221400, //52
|
||||
|
||||
#BARLINEON
|
||||
#GOGOSTART
|
||||
1110201122102012,
|
||||
1110201122102012,
|
||||
1110201122102012,
|
||||
1110201011202010,
|
||||
|
||||
1110201122102012,
|
||||
1110201122102011,
|
||||
1110222220111110,
|
||||
1022203000111111, //60
|
||||
|
||||
2222100010102000,
|
||||
1000201110201020,
|
||||
1111201020100010,
|
||||
0010201212202012,
|
||||
|
||||
1120202222101022,
|
||||
2210101111202050,
|
||||
000000000000000000000000000000000000000008000000,
|
||||
4,//68
|
||||
#GOGOEND
|
||||
|
||||
#MEASURE 6/4
|
||||
102020300022201111104000,
|
||||
101020300022201111104000,
|
||||
#MEASURE 3/4
|
||||
111222111,
|
||||
222111222, //72
|
||||
|
||||
600000000000000000000000000008000000,
|
||||
7,
|
||||
#MEASURE 4/4
|
||||
000000000000000000000000000000000000000000000008,
|
||||
#BARLINEOFF
|
||||
0, //76
|
||||
|
||||
#BARLINEON
|
||||
20220022,
|
||||
00220022,
|
||||
02200000,
|
||||
20020000,
|
||||
|
||||
10220022,
|
||||
10210021,
|
||||
0200,
|
||||
3022103020204000, //84
|
||||
|
||||
#GOGOSTART
|
||||
1000201110002000,
|
||||
1000201110201020,
|
||||
1111201020300030,
|
||||
0010400022104012,
|
||||
|
||||
1010202222101022,
|
||||
2210101111202000,
|
||||
1120202222101030,
|
||||
03030304, //92
|
||||
|
||||
1120202222101022,
|
||||
2210101111202070,
|
||||
0,
|
||||
#BARLINEOFF
|
||||
0008,
|
||||
#GOGOEND
|
||||
0, //97
|
||||
#END
|
||||
|
||||
|
||||
COURSE:Hard
|
||||
LEVEL:5
|
||||
BALLOON:10,8,5,5,20,10,20
|
||||
SCOREINIT:530,2410
|
||||
SCOREDIFF:120
|
||||
|
||||
#START
|
||||
32230223,
|
||||
02270000,
|
||||
0000008022202000, //3
|
||||
|
||||
10211101,
|
||||
00210120,
|
||||
10211101,
|
||||
00211020,
|
||||
|
||||
10211101,
|
||||
00210120,
|
||||
10211211,
|
||||
0400,
|
||||
|
||||
10211101,
|
||||
00210120,
|
||||
10211102,
|
||||
01201020,
|
||||
|
||||
11201202,
|
||||
00210120,
|
||||
10210101,
|
||||
#MEASURE 6/4
|
||||
000000100100100000500000000000000000000000000008000000000000400000000000, //19
|
||||
|
||||
#MEASURE 4/4
|
||||
#GOGOSTART
|
||||
10210120,
|
||||
10210120,
|
||||
10210120,
|
||||
11210212,
|
||||
|
||||
10210120,
|
||||
10210121,
|
||||
00400300,
|
||||
30030040,
|
||||
|
||||
1000201110002000,
|
||||
1000201110200020,
|
||||
10210105,
|
||||
000000000000000000000008000000000000400000000000,
|
||||
|
||||
12210221,
|
||||
02210225,
|
||||
000000000000000000000000000000000000000008000000,
|
||||
21010140, //35
|
||||
#GOGOEND
|
||||
|
||||
10112101,
|
||||
00012110,
|
||||
10112101,
|
||||
01102010,
|
||||
|
||||
10112101,
|
||||
00012110,
|
||||
1000101020111020,
|
||||
0708,
|
||||
|
||||
10211202,
|
||||
00210120,
|
||||
10211202,
|
||||
01201020,
|
||||
|
||||
11201202,
|
||||
00210120,
|
||||
1011101000100010,
|
||||
#MEASURE 6/4
|
||||
000000100100100000500000000000000000000000000000000000000008000000000000,
|
||||
#BARLINEOFF
|
||||
#MEASURE 4/4
|
||||
2214, //52
|
||||
|
||||
#BARLINEON
|
||||
#GOGOSTART
|
||||
10210120,
|
||||
10210120,
|
||||
10210120,
|
||||
10201120,
|
||||
|
||||
10210120,
|
||||
10210121,
|
||||
00400120,
|
||||
1022201000500000,
|
||||
|
||||
000008000000200000000000100000100000200000000000,
|
||||
1000201110200020,
|
||||
10210105,
|
||||
000000000000000000000008000000200000200000200000,
|
||||
|
||||
12210221,
|
||||
02210225,
|
||||
000000000000000000000000000000000000000008000000,
|
||||
4,//68
|
||||
#GOGOEND
|
||||
|
||||
#MEASURE 6/4
|
||||
122102270080,
|
||||
211201170080,
|
||||
#MEASURE 3/4
|
||||
111111111,
|
||||
222222222,
|
||||
|
||||
600000000000000000000000000008000000,
|
||||
9,
|
||||
#BARLINEOFF
|
||||
#MEASURE 4/4
|
||||
000000000000000000000000009000000000000000000008,
|
||||
0, //76
|
||||
|
||||
#BARLINEON
|
||||
2,
|
||||
2,
|
||||
2,
|
||||
20020000,
|
||||
|
||||
1,
|
||||
10010001,
|
||||
0200,
|
||||
30030040, //84
|
||||
|
||||
#GOGOSTART
|
||||
1000201110002000,
|
||||
1000201110200020,
|
||||
10210105,
|
||||
000000000000000000000008000000200000200000200000,
|
||||
|
||||
12210221,
|
||||
02210227,
|
||||
00000804,
|
||||
04030304,
|
||||
|
||||
12210221,
|
||||
0020201000222090,
|
||||
0,
|
||||
#BARLINEOFF
|
||||
000000000000090000000000000000000000800000000000,
|
||||
#GOGOEND
|
||||
0, //97
|
||||
#END
|
||||
|
||||
|
||||
COURSE:Normal
|
||||
LEVEL:5
|
||||
BALLOON:8,15,15
|
||||
SCOREINIT:490,2980
|
||||
SCOREDIFF:128
|
||||
|
||||
#START
|
||||
30030003,
|
||||
00070000,
|
||||
00080040, //3
|
||||
|
||||
10101101,
|
||||
00020220,
|
||||
10101101,
|
||||
01102020,
|
||||
|
||||
10101101,
|
||||
00020220,
|
||||
10101101,
|
||||
0400,
|
||||
|
||||
10101101,
|
||||
00020220,
|
||||
10101101,
|
||||
01102020,
|
||||
|
||||
01101101,
|
||||
00020220,
|
||||
10110101,
|
||||
#MEASURE 6/4
|
||||
000000100000100000500000000000000000000000000000000000000008000000000000, //19
|
||||
|
||||
#MEASURE 4/4
|
||||
#GOGOSTART
|
||||
10110220,
|
||||
10110220,
|
||||
10110220,
|
||||
30030000,
|
||||
|
||||
10110220,
|
||||
10110011,
|
||||
00200110,
|
||||
30030040,
|
||||
|
||||
10110220,
|
||||
10110220,
|
||||
10110105,
|
||||
000000000000000008000000000000000000400000000000,
|
||||
|
||||
11110222,
|
||||
01110115,
|
||||
000000000000000000000000000000000000000000000008,
|
||||
0004, //35
|
||||
#GOGOEND
|
||||
|
||||
10101101,
|
||||
00020220,
|
||||
10101101,
|
||||
01102020,
|
||||
|
||||
10101101,
|
||||
00020220,
|
||||
10101101,
|
||||
0400,
|
||||
|
||||
10101101,
|
||||
00020220,
|
||||
10101101,
|
||||
01102020,
|
||||
|
||||
01101101,
|
||||
00020220,
|
||||
10110101,
|
||||
#MEASURE 6/4
|
||||
000000100000100000500000000000000000000000000000000000000008000000000000,
|
||||
#BARLINEOFF
|
||||
#MEASURE 4/4
|
||||
0004, //52
|
||||
|
||||
#BARLINEON
|
||||
#GOGOSTART
|
||||
10110220,
|
||||
10110220,
|
||||
10110220,
|
||||
10102200,
|
||||
|
||||
10110220,
|
||||
10110011,
|
||||
00400400,
|
||||
30030000,
|
||||
|
||||
20110110,
|
||||
10220110,
|
||||
10110105,
|
||||
000000000000000000000008000000000000400000000000,
|
||||
|
||||
11110222,
|
||||
01110115,
|
||||
000000000000000000000000000000000000000000000008,
|
||||
0, //68
|
||||
#GOGOEND
|
||||
|
||||
#MEASURE 6/4
|
||||
111101110020,
|
||||
111101110020,
|
||||
#MEASURE 3/4
|
||||
333,
|
||||
333,
|
||||
|
||||
3,
|
||||
9,
|
||||
#BARLINEOFF
|
||||
#MEASURE 4/4
|
||||
000000000000000000000000009000000000000000000008,
|
||||
8,
|
||||
|
||||
#BARLINEON
|
||||
2,
|
||||
2,
|
||||
2,
|
||||
2,
|
||||
|
||||
1,
|
||||
10000001,
|
||||
0,
|
||||
40040000, //84
|
||||
|
||||
#GOGOSTART
|
||||
10110220,
|
||||
10110220,
|
||||
10110105,
|
||||
000000000000000000000008000000000000400000000000,
|
||||
|
||||
11110222,
|
||||
01110220,
|
||||
11110224,
|
||||
04040400,
|
||||
|
||||
11110222,
|
||||
01110119,
|
||||
0,
|
||||
#BARLINEOFF
|
||||
000000000000090000000000000000000000800000000000,
|
||||
#GOGOEND
|
||||
0, //97
|
||||
#END
|
||||
|
||||
|
||||
COURSE:Easy
|
||||
LEVEL:4
|
||||
BALLOON:5,10
|
||||
SCOREINIT:450,5340
|
||||
SCOREDIFF:135
|
||||
|
||||
#START
|
||||
30030003,
|
||||
00070000,
|
||||
00080040, //3
|
||||
|
||||
10101001,
|
||||
00010000,
|
||||
10101001,
|
||||
02,
|
||||
|
||||
10101001,
|
||||
00010000,
|
||||
1111,
|
||||
0400,
|
||||
|
||||
10101001,
|
||||
00010000,
|
||||
10101001,
|
||||
02,
|
||||
|
||||
00101001,
|
||||
00010000,
|
||||
30030003,
|
||||
#MEASURE 6/4
|
||||
000000000000000000500000000000000000000000000008000000000000000000000000, //19
|
||||
|
||||
#MEASURE 4/4
|
||||
#GOGOSTART
|
||||
10010010,
|
||||
10010010,
|
||||
1,
|
||||
40040000,
|
||||
|
||||
10010010,
|
||||
10010010,
|
||||
0400,
|
||||
30030000,
|
||||
|
||||
10010010,
|
||||
10010010,
|
||||
10010105,
|
||||
000000000000000000000000000008000000000000000000,
|
||||
|
||||
30030003,
|
||||
00030006,
|
||||
000000000000000000000000000000000000000000000008,
|
||||
0, //35
|
||||
#GOGOEND
|
||||
|
||||
10101001,
|
||||
00010000,
|
||||
10101001,
|
||||
02,
|
||||
|
||||
10101001,
|
||||
00010000,
|
||||
1111,
|
||||
0400,
|
||||
|
||||
10101001,
|
||||
00010000,
|
||||
10101001,
|
||||
02,
|
||||
|
||||
00101001,
|
||||
00010000,
|
||||
30030003,
|
||||
#MEASURE 6/4
|
||||
000000000000000000500000000000000000000000000000000000000008000000000000,
|
||||
#BARLINEOFF
|
||||
#MEASURE 4/4
|
||||
0, //52
|
||||
|
||||
#BARLINEON
|
||||
#GOGOSTART
|
||||
10010010,
|
||||
10010010,
|
||||
1,
|
||||
2220,
|
||||
|
||||
10010010,
|
||||
10010010,
|
||||
0400,
|
||||
30030000,
|
||||
|
||||
10010010,
|
||||
10010010,
|
||||
10010105,
|
||||
000000000000000000000000000008000000000000000000,
|
||||
|
||||
30030003,
|
||||
00030006,
|
||||
000000000000000000000000000000000000000000000008,
|
||||
0, //68
|
||||
#GOGOEND
|
||||
|
||||
#MEASURE 6/4
|
||||
300300030000,
|
||||
300300030000,
|
||||
#MEASURE 3/4
|
||||
333,
|
||||
333,
|
||||
|
||||
3,
|
||||
0,
|
||||
#MEASURE 4/4
|
||||
2,
|
||||
#BARLINEOFF
|
||||
0,
|
||||
|
||||
#BARLINEON
|
||||
2,
|
||||
2,
|
||||
2,
|
||||
0,
|
||||
|
||||
2,
|
||||
2,
|
||||
2,
|
||||
40040000, //84
|
||||
|
||||
#GOGOSTART
|
||||
10010010,
|
||||
10010010,
|
||||
10010105,
|
||||
000000000000000000000000000008000000000000000000,
|
||||
|
||||
30030003,
|
||||
00030000,
|
||||
30030003,
|
||||
03030300,
|
||||
|
||||
30030003,
|
||||
00030009,
|
||||
0,
|
||||
#BARLINEOFF
|
||||
000000000000090000000000000000000000800000000000,
|
||||
#GOGOEND
|
||||
0, //97
|
||||
#END
|
||||
Reference in New Issue
Block a user