tja
This commit is contained in:
622
tja/491.tja
Normal file
622
tja/491.tja
Normal file
@@ -0,0 +1,622 @@
|
||||
//TJADB Project
|
||||
TITLE:Hana Furumai
|
||||
TITLEJA:華振舞
|
||||
SUBTITLE:--Wagakki Band
|
||||
SUBTITLEJA:和楽器バンド
|
||||
BPM:162
|
||||
WAVE:Hana Furumai.ogg
|
||||
OFFSET:-2.982
|
||||
DEMOSTART:76.654
|
||||
|
||||
//Shinuchi: 3830/2770/1510/1030
|
||||
|
||||
COURSE:Oni
|
||||
LEVEL:9
|
||||
BALLOON:
|
||||
SCOREINIT:360,1070
|
||||
SCOREDIFF:83
|
||||
|
||||
#START
|
||||
20220222,
|
||||
20202022,
|
||||
20222022,
|
||||
2022202250000000,
|
||||
|
||||
0,
|
||||
000000000000000000000000000000000008000000000000,
|
||||
101010100200101010100100200000100100200200200200, //7
|
||||
|
||||
1020112010210120,
|
||||
1020112010210120,
|
||||
1020112010210120,
|
||||
1020112010201222,
|
||||
|
||||
1020112010210120,
|
||||
1020112010210120,
|
||||
1020112010211030,
|
||||
0300400211122111,
|
||||
2040112040112040,
|
||||
0020202020221010, //17
|
||||
|
||||
1020112010201120,
|
||||
2010221020102210,
|
||||
1020112010201120,
|
||||
2010221020102111,
|
||||
|
||||
1020112010201120,
|
||||
2010221020102210,
|
||||
1020112010201120,
|
||||
1020222020022202, //25
|
||||
|
||||
1020112010211120,
|
||||
2010221020122210,
|
||||
1020112010211120,
|
||||
2010221020122210,
|
||||
|
||||
1020112010211120,
|
||||
2010221020122210,
|
||||
1020112010211120,
|
||||
2021202212221010, //33
|
||||
|
||||
1020112010210120,
|
||||
1020112010210120,
|
||||
1020112010210120,
|
||||
14040404,
|
||||
|
||||
1020112010210120,
|
||||
1020112010210120,
|
||||
1020112010210120,
|
||||
14040404, //41
|
||||
|
||||
1020112010221120,
|
||||
1021021021004011,
|
||||
1020112010221120,
|
||||
1021021021004011,
|
||||
|
||||
1010002210021020,
|
||||
000000200100100100100000300000003000000030000000,
|
||||
40111111,
|
||||
1020111020102222,
|
||||
0000002210001222, //50
|
||||
|
||||
#GOGOSTART
|
||||
1020112010210120,
|
||||
1020112010210120,
|
||||
1020112010210120,
|
||||
1020112010222210,
|
||||
|
||||
1020112010210120,
|
||||
1020112010210120,
|
||||
1020112010210120,
|
||||
2202202202201111, //58
|
||||
|
||||
1020112010211120,
|
||||
1020112010221120,
|
||||
1020112010211120,
|
||||
1020112010222210,
|
||||
|
||||
1020112010211120,
|
||||
1020112010221120,
|
||||
1111102111201120,
|
||||
1222221222222210, //66
|
||||
|
||||
2102102102102112,
|
||||
#GOGOEND
|
||||
#BPMCHANGE 163.06
|
||||
#SCROLL 0.99
|
||||
0,
|
||||
0,
|
||||
#BPMCHANGE 160.64
|
||||
#SCROLL 1
|
||||
200020002000200020111200, //70
|
||||
|
||||
#BPMCHANGE 162
|
||||
1010221000022210,
|
||||
0000111110011122,
|
||||
#BPMCHANGE 162.5
|
||||
#SCROLL 0.99
|
||||
000000100000000200200000100000000200200200201010,
|
||||
#BPMCHANGE 162
|
||||
#SCROLL 1
|
||||
100000001010100000001010100000100000100100100100, //74
|
||||
|
||||
202020200200101010100000101010101010100000000000,
|
||||
#BPMCHANGE 160.79
|
||||
202020200200101010100000101010101010100000000000,
|
||||
#BPMCHANGE 163.55
|
||||
#SCROLL 0.99
|
||||
222100222100222100222100,
|
||||
#BPMCHANGE 160.48
|
||||
#SCROLL 1
|
||||
101100101100101100400000, //78
|
||||
|
||||
#BPMCHANGE 162
|
||||
#GOGOSTART
|
||||
1020112012210120,
|
||||
1020112012210120,
|
||||
1020112012210120,
|
||||
1020112010222210,
|
||||
|
||||
1020112012210120,
|
||||
1020112012210120,
|
||||
1222221222222210,
|
||||
1222221222222210, //86
|
||||
|
||||
2102102102102112,
|
||||
#GOGOEND
|
||||
00000002,
|
||||
04000000,
|
||||
000000000000000011100000, //90
|
||||
|
||||
#GOGOSTART
|
||||
1020112010210120,
|
||||
1020112010210120,
|
||||
1020112010210120,
|
||||
1221221120212210, //94
|
||||
#GOGOEND
|
||||
|
||||
3003003003003000,
|
||||
4004004004004000,
|
||||
4003004003004000,
|
||||
0,
|
||||
0, //99
|
||||
#END
|
||||
|
||||
|
||||
COURSE:Hard
|
||||
LEVEL:7
|
||||
BALLOON:24,8
|
||||
SCOREINIT:400,1650
|
||||
SCOREDIFF:98
|
||||
|
||||
#START
|
||||
20220220,
|
||||
20202022,
|
||||
20222020,
|
||||
2022202250000000,
|
||||
|
||||
0,
|
||||
000000000000000000000000000000000008000000000000,
|
||||
1110111020222000, //7
|
||||
|
||||
1000101110001010,
|
||||
1000101110001010,
|
||||
1000101110001010,
|
||||
1000101110002020,
|
||||
|
||||
2000202220002020,
|
||||
2000202220002020,
|
||||
2000202220002020,
|
||||
1110201000201000,
|
||||
34034034,
|
||||
0020202020222020, //17
|
||||
|
||||
1010001110100010,
|
||||
1010001110100010,
|
||||
1010001110100010,
|
||||
1010001110100010,
|
||||
|
||||
1020001110200010,
|
||||
1020001110200010,
|
||||
1020001110200010,
|
||||
1020002011102011, //25
|
||||
|
||||
1010001110100010,
|
||||
1010001110100010,
|
||||
1010001110100010,
|
||||
1010001110100010,
|
||||
|
||||
1020001110200010,
|
||||
1020001110200010,
|
||||
1020001110200010,
|
||||
2022202022202000, //33
|
||||
|
||||
1000101000110110,
|
||||
1000101000110110,
|
||||
1000101000110110,
|
||||
14040404,
|
||||
|
||||
1000101000220220,
|
||||
1000101000220220,
|
||||
1000101000220220,
|
||||
14040404, //41
|
||||
|
||||
12121020,
|
||||
1001001001004000,
|
||||
12121020,
|
||||
1001001001004000,
|
||||
|
||||
11022011,
|
||||
000200200000300030003000,
|
||||
40004433,
|
||||
600000000000000000000000000000000000000000000008,
|
||||
0000002220000000, //50
|
||||
|
||||
#GOGOSTART
|
||||
1020102010220020,
|
||||
1020101110002000,
|
||||
1020102010110010,
|
||||
11201000,
|
||||
|
||||
1020102010220020,
|
||||
1020101110002000,
|
||||
1020102010110010,
|
||||
11221040, //58
|
||||
|
||||
1020102010220220,
|
||||
1000101110002000,
|
||||
1020102010110110,
|
||||
12121000,
|
||||
|
||||
1020102010220220,
|
||||
1000101110002000,
|
||||
10120122,
|
||||
1110111011101000, //66
|
||||
|
||||
1101101101101111,
|
||||
#GOGOEND
|
||||
#BPMCHANGE 163.06
|
||||
#SCROLL 0.99
|
||||
0,
|
||||
0,
|
||||
#BPMCHANGE 160.64
|
||||
#SCROLL 1
|
||||
200020002000200020000200, //70
|
||||
|
||||
#BPMCHANGE 162
|
||||
9,
|
||||
09,
|
||||
#BPMCHANGE 162.5
|
||||
#SCROLL 0.99
|
||||
8,
|
||||
#BPMCHANGE 162
|
||||
#SCROLL 1
|
||||
0, //74
|
||||
|
||||
2220111022201000,
|
||||
#BPMCHANGE 160.79
|
||||
2220111022201000,
|
||||
#BPMCHANGE 163.55
|
||||
#SCROLL 0.99
|
||||
2210221022102210,
|
||||
#BPMCHANGE 160.48
|
||||
#SCROLL 1
|
||||
7008, //78
|
||||
|
||||
#BPMCHANGE 162
|
||||
#GOGOSTART
|
||||
1020102010220220,
|
||||
1000101110002000,
|
||||
1020102010110110,
|
||||
12121000,
|
||||
|
||||
1020102010220220,
|
||||
1000101110002000,
|
||||
10120122,
|
||||
1110111011101000, //86
|
||||
|
||||
1101101101101111,
|
||||
#GOGOEND
|
||||
00000002,
|
||||
04000000,
|
||||
0, //90
|
||||
|
||||
#GOGOSTART
|
||||
1020102010111110,
|
||||
1020102010111110,
|
||||
1020102010111110,
|
||||
1110201110102000, //94
|
||||
#GOGOEND
|
||||
|
||||
3003003003003000,
|
||||
4004004004004000,
|
||||
4003004003004000,
|
||||
0,
|
||||
0, //99
|
||||
#END
|
||||
|
||||
|
||||
COURSE:Normal
|
||||
LEVEL:5
|
||||
BALLOON:6,15,6
|
||||
SCOREINIT:530,3290
|
||||
SCOREDIFF:140
|
||||
|
||||
#START
|
||||
20220020,
|
||||
2220,
|
||||
20220020,
|
||||
2250,
|
||||
|
||||
0,
|
||||
000000000000000000000000000000000008000000000000,
|
||||
7008, //7
|
||||
|
||||
10110000,
|
||||
10110000,
|
||||
10110000,
|
||||
1110,
|
||||
|
||||
20220000,
|
||||
20220000,
|
||||
20220000,
|
||||
500000000000000000000000000000000008000000000000,
|
||||
33033033,
|
||||
0, //17
|
||||
|
||||
10110000,
|
||||
10110000,
|
||||
10110000,
|
||||
10110000,
|
||||
|
||||
20220000,
|
||||
20220000,
|
||||
20220000,
|
||||
20220000, //25
|
||||
|
||||
10110010,
|
||||
10110000,
|
||||
10110010,
|
||||
10110000,
|
||||
|
||||
20220020,
|
||||
20220000,
|
||||
20220020,
|
||||
500000000000000000000000000000000008000000000000, //33
|
||||
|
||||
10220020,
|
||||
10220020,
|
||||
10220020,
|
||||
04040404,
|
||||
|
||||
10220020,
|
||||
10220020,
|
||||
10220020,
|
||||
04040404, //41
|
||||
|
||||
10111000,
|
||||
1001001001004000,
|
||||
10111000,
|
||||
1001001001004000,
|
||||
|
||||
11011011,
|
||||
000100100000300030003000,
|
||||
30004444,
|
||||
600000000000000000000000000000000000000000000008,
|
||||
0, //50
|
||||
|
||||
#GOGOSTART
|
||||
10101110,
|
||||
1110,
|
||||
10101110,
|
||||
2220,
|
||||
|
||||
10101110,
|
||||
1110,
|
||||
10101110,
|
||||
2224, //58
|
||||
|
||||
10101110,
|
||||
1110,
|
||||
10101110,
|
||||
2220,
|
||||
|
||||
10101110,
|
||||
1110,
|
||||
10010010,
|
||||
1022, //66
|
||||
|
||||
30030030,
|
||||
#GOGOEND
|
||||
#BPMCHANGE 163.06
|
||||
#SCROLL 0.99
|
||||
0,
|
||||
0,
|
||||
#BPMCHANGE 160.64
|
||||
#SCROLL 1
|
||||
22, //70
|
||||
|
||||
#BPMCHANGE 162
|
||||
9,
|
||||
09,
|
||||
#BPMCHANGE 162.5
|
||||
#SCROLL 0.99
|
||||
8,
|
||||
#BPMCHANGE 162
|
||||
#SCROLL 1
|
||||
0, //74
|
||||
|
||||
2211,
|
||||
#BPMCHANGE 160.79
|
||||
2211,
|
||||
#BPMCHANGE 163.55
|
||||
#SCROLL 0.99
|
||||
2121,
|
||||
#BPMCHANGE 160.48
|
||||
#SCROLL 1
|
||||
7008, //78
|
||||
|
||||
#BPMCHANGE 162
|
||||
#GOGOSTART
|
||||
10101110,
|
||||
1110,
|
||||
10101110,
|
||||
2220,
|
||||
|
||||
10101110,
|
||||
1110,
|
||||
10010010,
|
||||
1022, //86
|
||||
|
||||
30030030,
|
||||
#GOGOEND
|
||||
00000002,
|
||||
04000000,
|
||||
0, //90
|
||||
|
||||
#GOGOSTART
|
||||
10101110,
|
||||
2220,
|
||||
10101110,
|
||||
2222, //94
|
||||
#GOGOEND
|
||||
|
||||
3003003003003000,
|
||||
4004004004004000,
|
||||
3003004004003000,
|
||||
0,
|
||||
0, //99
|
||||
#END
|
||||
|
||||
|
||||
COURSE:Easy
|
||||
LEVEL:4
|
||||
BALLOON:4,12,4
|
||||
SCOREINIT:430,4460
|
||||
SCOREDIFF:120
|
||||
|
||||
#START
|
||||
2200,
|
||||
2220,
|
||||
2202,
|
||||
2250,
|
||||
|
||||
0,
|
||||
000000000000000000000000000000000008000000000000,
|
||||
7008, //7
|
||||
|
||||
1110,
|
||||
1110,
|
||||
1110,
|
||||
1110,
|
||||
|
||||
2220,
|
||||
2220,
|
||||
2220,
|
||||
500000000000000000000000000008000000000000000000,
|
||||
30030030,
|
||||
0, //17
|
||||
|
||||
11,
|
||||
11,
|
||||
11,
|
||||
1110,
|
||||
|
||||
22,
|
||||
22,
|
||||
22,
|
||||
2220, //25
|
||||
|
||||
11,
|
||||
11,
|
||||
11,
|
||||
1110,
|
||||
|
||||
22,
|
||||
22,
|
||||
22,
|
||||
500000000000000000000000000008000000000000000000, //33
|
||||
|
||||
1100,
|
||||
1100,
|
||||
1101,
|
||||
04040400,
|
||||
|
||||
1100,
|
||||
2200,
|
||||
1102,
|
||||
04040400, //41
|
||||
|
||||
1110,
|
||||
1001001001004000,
|
||||
1110,
|
||||
1001001001004000,
|
||||
|
||||
10010010,
|
||||
01003000,
|
||||
3044,
|
||||
600000000000000000000000000000000000000000000008,
|
||||
0, //50
|
||||
|
||||
#GOGOSTART
|
||||
1110,
|
||||
1110,
|
||||
1111,
|
||||
2220,
|
||||
|
||||
1110,
|
||||
1110,
|
||||
1111,
|
||||
2220, //58
|
||||
|
||||
1110,
|
||||
1110,
|
||||
1111,
|
||||
2220,
|
||||
|
||||
1110,
|
||||
1110,
|
||||
10010010,
|
||||
1, //66
|
||||
|
||||
30030030,
|
||||
#GOGOEND
|
||||
#BPMCHANGE 163.06
|
||||
#SCROLL 0.99
|
||||
0,
|
||||
0,
|
||||
#BPMCHANGE 160.64
|
||||
#SCROLL 1
|
||||
22, //70
|
||||
|
||||
#BPMCHANGE 162
|
||||
9,
|
||||
09,
|
||||
#BPMCHANGE 162.5
|
||||
#SCROLL 0.99
|
||||
8,
|
||||
#BPMCHANGE 162
|
||||
#SCROLL 1
|
||||
0, //74
|
||||
|
||||
22,
|
||||
#BPMCHANGE 160.79
|
||||
22,
|
||||
#BPMCHANGE 163.55
|
||||
#SCROLL 0.99
|
||||
2222,
|
||||
#BPMCHANGE 160.48
|
||||
#SCROLL 1
|
||||
7008, //78
|
||||
|
||||
#BPMCHANGE 162
|
||||
#GOGOSTART
|
||||
1110,
|
||||
1110,
|
||||
1111,
|
||||
2220,
|
||||
|
||||
1110,
|
||||
1110,
|
||||
10010010,
|
||||
1, //86
|
||||
|
||||
30030030,
|
||||
#GOGOEND
|
||||
0,
|
||||
0,
|
||||
0, //90
|
||||
|
||||
#GOGOSTART
|
||||
1111,
|
||||
2220,
|
||||
1111,
|
||||
2222, //94
|
||||
#GOGOEND
|
||||
|
||||
30030030,
|
||||
40040040,
|
||||
30030030,
|
||||
0,
|
||||
0, //99
|
||||
#END
|
||||
Reference in New Issue
Block a user