tja
This commit is contained in:
615
tja/499.tja
Normal file
615
tja/499.tja
Normal file
@@ -0,0 +1,615 @@
|
||||
//TJADB Project
|
||||
TITLE:Norudon 2000
|
||||
TITLEJA:ノるどん2000
|
||||
SUBTITLE:--Linda AI-CUE
|
||||
BPM:200
|
||||
WAVE:Norudon 2000.ogg
|
||||
OFFSET:-1.604
|
||||
DEMOSTART:15.997
|
||||
|
||||
COURSE:Oni
|
||||
LEVEL:10
|
||||
SCOREINIT:380
|
||||
SCOREDIFF:90
|
||||
|
||||
|
||||
#START
|
||||
|
||||
|
||||
1002201000200020,
|
||||
1002201000200020,
|
||||
1002201000200020,
|
||||
1002201000202020,
|
||||
1002201000210220,
|
||||
1002201000210220,
|
||||
1002201000210220,
|
||||
1002201020210220,
|
||||
32222023,
|
||||
32222023,
|
||||
3002003030020030,
|
||||
3012221212104000,
|
||||
|
||||
#GOGOSTART
|
||||
|
||||
1021102011201021,
|
||||
1020112010211020,
|
||||
1010211020202110,
|
||||
1021102011202020,
|
||||
1022102012201022,
|
||||
1020122010221020,
|
||||
1010211020202110,
|
||||
1021102211212000,
|
||||
|
||||
#GOGOEND
|
||||
|
||||
32222023,
|
||||
32332332,
|
||||
3012202030122020,
|
||||
3021203000402111,
|
||||
1012201010201120,
|
||||
1012201010201120,
|
||||
1012201012202010,
|
||||
1012201010200020,
|
||||
1021102010201022,
|
||||
1021102010201022,
|
||||
1021101021102010,
|
||||
1021102010001220,
|
||||
1022002010220020,
|
||||
1022002012202010,
|
||||
1022002050000000,
|
||||
000000000000000000000008000000000000200100100000,
|
||||
1022002010220020,
|
||||
1022002010220022,
|
||||
0010002010211010,
|
||||
0020002010211020,
|
||||
500000000000000000000000000000000008000000000000,
|
||||
6,
|
||||
000000000008000000000000300000000000400000300000,
|
||||
3040222210222222,
|
||||
|
||||
#MEASURE 3/4
|
||||
|
||||
100200100220,
|
||||
101200100220,
|
||||
111010200020,
|
||||
111010200020,
|
||||
100200100220,
|
||||
101200100220,
|
||||
112112,
|
||||
112120211111,
|
||||
100220100210,
|
||||
100220101020,
|
||||
100220100210,
|
||||
100220101020,
|
||||
112020201120,
|
||||
201120202011,
|
||||
201120122022,
|
||||
101000211111,
|
||||
|
||||
#MEASURE 4/4
|
||||
|
||||
15,
|
||||
,
|
||||
000000000000000000000000000000000000000008000000,
|
||||
3000300011112222,
|
||||
1120201120201020,
|
||||
1120202011201120,
|
||||
1220201220201020,
|
||||
1220202012201222,
|
||||
1021010210102202,
|
||||
1021010210102202,
|
||||
1021020210202202,
|
||||
1021020210202111,
|
||||
2022203022221110,
|
||||
2022203022221110,
|
||||
1111201112201122,
|
||||
2012222022222222,
|
||||
|
||||
#BPMCHANGE 140
|
||||
|
||||
#MEASURE 3/4
|
||||
|
||||
100100202020,
|
||||
100100201020,
|
||||
100100202020,
|
||||
100000000100202020202020100000200000,
|
||||
100000000100000000100100200000202020,
|
||||
100000200200100000202020100000100200,
|
||||
101210221020,
|
||||
500000000000008000101010200200102020,
|
||||
100000000100000000100100200000202020,
|
||||
100000200200100000202020100000100200,
|
||||
101210221020,
|
||||
500000000000008000101010200200102020,
|
||||
100110205000,
|
||||
000000000000000000000000000000000008,
|
||||
000110205000,
|
||||
000000000000000008000000400000000000,
|
||||
|
||||
#BPMCHANGE 154
|
||||
|
||||
32,
|
||||
|
||||
#BPMCHANGE 166
|
||||
|
||||
32,
|
||||
|
||||
#BPMCHANGE 179
|
||||
|
||||
32,
|
||||
|
||||
#BPMCHANGE 196
|
||||
|
||||
32,
|
||||
|
||||
#BPMCHANGE 200
|
||||
|
||||
#MEASURE 4/4
|
||||
|
||||
3020202012202030,
|
||||
3020202012202030,
|
||||
3021203030212030,
|
||||
32323240,
|
||||
|
||||
#GOGOSTART
|
||||
|
||||
1021102011201021,
|
||||
1020112010211020,
|
||||
1010211020202110,
|
||||
1021102011202020,
|
||||
1022102012201022,
|
||||
1020122010221020,
|
||||
1010211020202110,
|
||||
1021102011212000,
|
||||
1021112011211022,
|
||||
1220122210210120,
|
||||
1010210120210120,
|
||||
1021122211202020,
|
||||
1022122012221021,
|
||||
1120112110210120,
|
||||
1010210120210120,
|
||||
1021122211212000,
|
||||
40340344,
|
||||
|
||||
#GOGOEND
|
||||
|
||||
|
||||
#END
|
||||
|
||||
|
||||
COURSE:Hard
|
||||
LEVEL:7
|
||||
BALLOON:25,10,8
|
||||
SCOREINIT:390
|
||||
SCOREDIFF:110
|
||||
|
||||
#START
|
||||
10210202,
|
||||
10210202,
|
||||
10210202,
|
||||
10210222,
|
||||
10210202,
|
||||
10210202,
|
||||
10210202,
|
||||
10210202,
|
||||
30000003,
|
||||
30000003,
|
||||
30033003,
|
||||
3440,//12
|
||||
|
||||
#GOGOSTART
|
||||
1011101011101010,
|
||||
12121011,
|
||||
11011221,
|
||||
12121000,
|
||||
2022202022202020,
|
||||
21212022,
|
||||
22022112,
|
||||
21212000,//20
|
||||
|
||||
#GOGOEND
|
||||
30000003,
|
||||
30330330,
|
||||
11221122,
|
||||
1022201000404000,
|
||||
11011001,
|
||||
12211000,
|
||||
11011020,
|
||||
11211000,
|
||||
22022002,
|
||||
21122000,
|
||||
22022010,
|
||||
22122000,
|
||||
10021002,
|
||||
10021022,
|
||||
10025000,
|
||||
000000000000000000000008000000000000000000000000,
|
||||
20021002,
|
||||
10021000,
|
||||
01021022,
|
||||
01021022,
|
||||
500000000000000000000000000000000008000000000000,
|
||||
600000000000000000000000000000000000000000000008,
|
||||
,
|
||||
,
|
||||
#MEASURE 3/4
|
||||
1212,
|
||||
1212,
|
||||
111,
|
||||
2,
|
||||
1212,
|
||||
1212,
|
||||
111,
|
||||
2,
|
||||
1212,
|
||||
1212,
|
||||
1212,
|
||||
1212,
|
||||
102,
|
||||
1,
|
||||
122,
|
||||
110200,
|
||||
#MEASURE 4/4
|
||||
39,
|
||||
,
|
||||
09,
|
||||
8,
|
||||
22210212,
|
||||
0020002000222010,
|
||||
02210212,
|
||||
02020210,
|
||||
22210212,
|
||||
0020002000222010,
|
||||
02210212,
|
||||
02020210,
|
||||
1011103000000000,
|
||||
2022204000000000,
|
||||
1110101110102220,
|
||||
200000200200200000200000500000000008000000000000,
|
||||
#BPMCHANGE 140
|
||||
#MEASURE 3/4
|
||||
100100202020,
|
||||
1120,
|
||||
100100202020,
|
||||
1120,
|
||||
100100102011,
|
||||
100010010010,
|
||||
201110002000,
|
||||
500000000000000000000008000000000000,
|
||||
100100102011,
|
||||
100010010010,
|
||||
201110002000,
|
||||
500000000000000000000008000000000000,
|
||||
001022207000,
|
||||
008,
|
||||
001022207000,
|
||||
084,
|
||||
#BPMCHANGE 152
|
||||
3,
|
||||
#BPMCHANGE 166
|
||||
3,
|
||||
#BPMCHANGE 180
|
||||
3,
|
||||
#BPMCHANGE 194
|
||||
3,
|
||||
#BPMCHANGE 200
|
||||
#MEASURE 4/4
|
||||
3,
|
||||
3,
|
||||
33,
|
||||
3330,//100
|
||||
|
||||
#GOGOSTART
|
||||
1011101011101010,
|
||||
12121011,
|
||||
11011221,
|
||||
12121000,
|
||||
2022202022202020,
|
||||
21212022,
|
||||
22022112,
|
||||
21212000,
|
||||
1011102011101020,
|
||||
12121011,
|
||||
11011221,
|
||||
12211000,
|
||||
2022201022202010,
|
||||
21212022,
|
||||
22022112,
|
||||
21122000,
|
||||
40340344,//117
|
||||
|
||||
#GOGOEND
|
||||
,
|
||||
,
|
||||
,
|
||||
#END
|
||||
|
||||
COURSE:Normal
|
||||
LEVEL:6
|
||||
BALLOON:15,7,6
|
||||
|
||||
#START
|
||||
10210010,
|
||||
10210010,
|
||||
10210010,
|
||||
10210011,
|
||||
10210010,
|
||||
10210010,
|
||||
10210010,
|
||||
10210010,
|
||||
30000003,
|
||||
30000003,
|
||||
30033003,
|
||||
3440,//12
|
||||
|
||||
#GOGOSTART
|
||||
10111011,
|
||||
1110,
|
||||
11011010,
|
||||
11101000,
|
||||
20222022,
|
||||
2220,
|
||||
22022020,
|
||||
22202000,//20
|
||||
|
||||
#GOGOEND
|
||||
30000003,
|
||||
30330330,
|
||||
3,
|
||||
,
|
||||
11011000,
|
||||
11101000,
|
||||
11011010,
|
||||
11101000,
|
||||
22022000,
|
||||
22202000,
|
||||
22022020,
|
||||
22202000,
|
||||
10011001,
|
||||
10011010,
|
||||
10015000,
|
||||
000000000000000000000008000000000000000000000000,
|
||||
20022002,
|
||||
20022000,
|
||||
01011022,
|
||||
01011022,
|
||||
500000000000000000000000000000000008000000000000,
|
||||
600000000000000000000000000000000000000000000008,
|
||||
,
|
||||
,
|
||||
#MEASURE 3/4
|
||||
11,
|
||||
11,
|
||||
1,
|
||||
,
|
||||
11,
|
||||
11,
|
||||
111,
|
||||
2,
|
||||
11,
|
||||
11,
|
||||
11,
|
||||
21,
|
||||
101,
|
||||
1,
|
||||
111,
|
||||
110200,
|
||||
#MEASURE 4/4
|
||||
39,
|
||||
,
|
||||
09,
|
||||
8,
|
||||
22202020,
|
||||
22202020,
|
||||
12202020,
|
||||
12202020,
|
||||
22202020,
|
||||
22202020,
|
||||
12202020,
|
||||
12202020,
|
||||
30030000,
|
||||
40040000,
|
||||
30030040,
|
||||
000000400000000000000000600000000008000000000000,
|
||||
#BPMCHANGE 140
|
||||
#MEASURE 3/4
|
||||
1120,
|
||||
1120,
|
||||
1120,
|
||||
1120,
|
||||
100100102000,
|
||||
000010010010,
|
||||
222,
|
||||
500000000000000000000008000000000000,
|
||||
100100102000,
|
||||
000010010010,
|
||||
222,
|
||||
500000000000000000000008000000000000,
|
||||
010170,
|
||||
008,
|
||||
010170,
|
||||
084,
|
||||
#BPMCHANGE 152
|
||||
3,
|
||||
#BPMCHANGE 166
|
||||
3,
|
||||
#BPMCHANGE 180
|
||||
3,
|
||||
#BPMCHANGE 194
|
||||
3,
|
||||
#BPMCHANGE 200
|
||||
#MEASURE 4/4
|
||||
3,
|
||||
3,
|
||||
33,
|
||||
3330,//100
|
||||
|
||||
#GOGOSTART
|
||||
10111011,
|
||||
1110,
|
||||
11011010,
|
||||
11101000,
|
||||
20222022,
|
||||
2220,
|
||||
22022020,
|
||||
22202000,
|
||||
10221022,
|
||||
1210,
|
||||
11022020,
|
||||
11201000,
|
||||
10221022,
|
||||
1210,
|
||||
11022020,
|
||||
11201000,
|
||||
40440333,//117
|
||||
|
||||
#GOGOEND
|
||||
,
|
||||
,
|
||||
,
|
||||
#END
|
||||
|
||||
COURSE:Easy
|
||||
LEVEL:4
|
||||
BALLOON:11,5,4
|
||||
|
||||
#START
|
||||
10010010,
|
||||
10010010,
|
||||
10010010,
|
||||
10010020,
|
||||
10010010,
|
||||
10010010,
|
||||
10010010,
|
||||
10010020,
|
||||
30000003,
|
||||
30000003,
|
||||
30033003,
|
||||
3440,//12
|
||||
|
||||
#GOGOSTART
|
||||
11,
|
||||
1110,
|
||||
11,
|
||||
1110,
|
||||
22,
|
||||
2220,
|
||||
22,
|
||||
2220,//20
|
||||
|
||||
#GOGOEND
|
||||
30000003,
|
||||
30330330,
|
||||
3,
|
||||
,
|
||||
11,
|
||||
1110,
|
||||
11,
|
||||
1110,
|
||||
22,
|
||||
2220,
|
||||
22,
|
||||
2220,
|
||||
11,
|
||||
1011,
|
||||
15,
|
||||
000000000000000000000008000000000000000000000000,
|
||||
11,
|
||||
22,
|
||||
01011000,
|
||||
01011000,
|
||||
500000000000000000000000000000000008000000000000,
|
||||
600000000000000000000000000000000000000000000008,
|
||||
,
|
||||
,
|
||||
#MEASURE 3/4
|
||||
11,
|
||||
11,
|
||||
1,
|
||||
,
|
||||
11,
|
||||
11,
|
||||
1,
|
||||
2,
|
||||
11,
|
||||
11,
|
||||
11,
|
||||
21,
|
||||
101,
|
||||
1,
|
||||
111,
|
||||
12,
|
||||
#MEASURE 4/4
|
||||
39,
|
||||
,
|
||||
09,
|
||||
8,
|
||||
1202,
|
||||
1202,
|
||||
1202,
|
||||
1220,
|
||||
1202,
|
||||
1202,
|
||||
1202,
|
||||
1220,
|
||||
30030000,
|
||||
40040000,
|
||||
30030040,
|
||||
000000400000000000000000600000000008000000000000,
|
||||
#BPMCHANGE 140
|
||||
#MEASURE 3/4
|
||||
1120,
|
||||
1120,
|
||||
1120,
|
||||
1120,
|
||||
100120,
|
||||
001001,
|
||||
201,
|
||||
500000000000000000000008000000000000,
|
||||
100120,
|
||||
001001,
|
||||
201,
|
||||
500000000000000000000008000000000000,
|
||||
010170,
|
||||
008,
|
||||
010170,
|
||||
084,
|
||||
#BPMCHANGE 152
|
||||
3,
|
||||
#BPMCHANGE 166
|
||||
3,
|
||||
#BPMCHANGE 180
|
||||
3,
|
||||
#BPMCHANGE 194
|
||||
3,
|
||||
#BPMCHANGE 200
|
||||
#MEASURE 4/4
|
||||
3,
|
||||
3,
|
||||
33,
|
||||
3330,//100
|
||||
|
||||
#GOGOSTART
|
||||
1110,
|
||||
1110,
|
||||
11,
|
||||
1110,
|
||||
2220,
|
||||
2220,
|
||||
22,
|
||||
2220,
|
||||
1210,
|
||||
1210,
|
||||
1212,
|
||||
1220,
|
||||
1210,
|
||||
1210,
|
||||
1212,
|
||||
1220,
|
||||
30330333,//117
|
||||
|
||||
#GOGOEND
|
||||
,
|
||||
,
|
||||
,
|
||||
#END
|
||||
Reference in New Issue
Block a user