This commit is contained in:
2026-03-04 23:59:27 +09:00
parent 6e0312f5b4
commit 4b4e2b8c98
1128 changed files with 668765 additions and 0 deletions

612
tja/5.tja Normal file
View File

@@ -0,0 +1,612 @@
//TJADB Project
TITLE:IOSYS Aki no Nikushoku Matsuri 2014
TITLEJA:イオシス秋の肉食祭2014
SUBTITLE:--D.watt (IOSYS) feat. Np Hiko Inuta & Hakase
SUBTITLEJA:D.watt(IOSYS) feat.Np 犬田彦 & はかせ
BPM:178
WAVE:IOSYS Aki no Nikushoku Matsuri 2014.ogg
OFFSET:-2.454
DEMOSTART:28.967
COURSE:Oni
LEVEL:9
BALLOON:15,15
SCOREINIT:340
SCOREDIFF:80
#START
3002102000200020,
3002102002102000,
3002102000200020,
3002102021201000,
1020102012102012,
1010101012102012,
1112111211121111,
1000200020112000,
1001202010200020,
1002102002102011,
1001202010200020,
1002102002102011,
1001202010200020,
1002102000200020,
500000000000000000000000000000000008000000000000,
7008,
500000000000000000000000000000000008000000000000,
7008,
4,
0000000000112010,
1020002102102010,
1020002102102010,
1020002102102010,
1020122102102010,
1020002102102010,
1020002102102010,
1020122102102010,
100200200200100200200200102020200100000200100000,
0022201022102010,
1220102102102010,
0022201022102010,
1220102102102010,
0012202012202010,
1122,
1012022210120222,
1020122212121000,//36
#GOGOSTART
100000000100000000200200000200100000200000101010,
100000100000202020200100000200100000200000101010,
100000100000202020200100000200100000200000101010,//39
#GOGOEND
10300300,//40
#GOGOSTART
1010111110201010,
1010111110201111,
101010100100200100200100101010100100200100200100,
2121212121212120,//44
#GOGOEND
#BPMCHANGE 132
3,
,
202020202020202020202010100000200000200000000100,
1011010110220201,
1101010110220201,
1011110111220201,
1011101111220200,
100101200100000101200100,
100101200100000101200100,
100000100010200000100000000100100010200000100000,
000101200100100101200000,//55
#GOGOSTART
11
#BPMCHANGE 134.78
11,
#BPMCHANGE 138.27
11
#BPMCHANGE 141.85
11,
#BPMCHANGE 145.18
11
#BPMCHANGE 148.53
11,
#BPMCHANGE 152.56
11
#BPMCHANGE 155.68
12,
#BPMCHANGE 159.4
1111
#BPMCHANGE 162.89
1110,
#BPMCHANGE 165.87
1111
#BPMCHANGE 170.05
1111,
#BPMCHANGE 172.9
3222
#BPMCHANGE 176.96
3222,
#BPMCHANGE 180
1111111111111110,//63
#GOGOEND
34,
4334,//65
#GOGOSTART
1110201110221020,
1110201110221020,
1110201110221030,
300000000400000000400000600000000008000000000000,
1011211020112110,
1011211020112110,
1111212011112120,//72
#GOGOEND
1021021010004000,//73
#GOGOSTART
1022222010222210,
1022222010221010,
1022222010210210,
1022221012210210,
1022222010222210,
1022222010222210,
1102102011021020,
1222122210201000,
1002102010200210,
1002102012221020,
1002102010200210,
1002102001222210,
1002102010021020,
1122,
1012222210102222,
1012222210102222,
1012222210102222,
1112222210102222,
1112222211112222,
1212121212121212,
111200300400111200300400,
111200300400111200300400,
6,
#BPMCHANGE 177.79
#SCROLL 1.01
000000000000000000000000000000000008000000000000,//57
#GOGOEND
4,
#END
COURSE:Hard
LEVEL:7
BALLOON:12,12,10
SCOREINIT:390
SCOREDIFF:100
#START
30020202,
30020202,
30020202,
3,
1000100011101010,
1010101011101010,
1110111011101111,
10202120,
10221201,
01020222,
10221201,
01022210,
10221201,
01020202,
500000000000000000000000000000000008000000000000,
7008,
500000000000000000000000000000000008000000000000,
7008,
4,
00000011,
10220111,
0020202010222010,
10210000,
20210011,
10220111,
0020202010222010,
10210105,
000000000000000000000000000000000008000000000000,
02221222,
1000201000222000,
02221222,
1000201000222020,
02221222,
1111,
500000000000000000000000000000000000000000000008,
,//36
#GOGOSTART
1110002000102000,
1110002000102000,
1110002000102000,//39
#GOGOEND
00300300,//40
#GOGOSTART
1110101010200000,
1110101010200000,
1110101011101010,
1110111011101110,//44
#GOGOEND
#BPMCHANGE 132
4,
,
7000000080202001,
1011000110220001,
1101010110220001,
1011000110220001,
1011101010220000,
100101100000000101100000,
100101100000000101100000,
100101100000000101100000,
100101100000000101100000,//55
#GOGOSTART
11
#BPMCHANGE 135
11,
#BPMCHANGE 139
11
#BPMCHANGE 142
11,
#BPMCHANGE 145
11
#BPMCHANGE 149
11,
#BPMCHANGE 152
11
#BPMCHANGE 155
12,
#BPMCHANGE 159
1111
#BPMCHANGE 162
1110,
#BPMCHANGE 165
1111
#BPMCHANGE 169
1111,
#BPMCHANGE 172
3
#BPMCHANGE 176
3,
#BPMCHANGE 180
3333,//63
#GOGOEND
44,
3334,//65
#GOGOSTART
1110001000102000,
1110001000102000,
1110001000102030,
300000000300000000300000600000000008000000000000,
1111102000102000,
1111102000102000,
1110101011101010,//72
#GOGOEND
1110111020001010,//73
#GOGOSTART
10220111,
0020202010222010,
10210000,
20210111,
00220111,
0020202010222010,
10210105,
000000000000000000000000000000000008000000000000,
02221222,
1000201000222000,
02221222,
1000201000222020,
02221222,
1111,
500000000000000000000000000008000000000000200000,
1110001020200020,
1110001020200020,
1110001020200020,
11221122,
11221122,
12121212,
34343434,
6,
000000000000000000000000000000000008000000000000,//57
#GOGOEND
4,
,
#END
COURSE:Normal
LEVEL:6
BALLOON:7,7
#START
3,
3,
3,
3,
10101210,
10101210,
500000000000000000000000000000000000000000000008,
,
10102201,
01020200,
10102201,
01020200,
10102201,
01020200,
500000000000000000000000000000000008000000000000,
7008,
500000000000000000000000000000000008000000000000,
7008,
4,
00000011,
10000111,
01111020,
10110000,
20220011,
10000111,
01111020,
10110105,
000000000000000000000000000008000000000000000000,
10220201,
10110000,
10220201,
10110000,
10220201,
1111,
500000000000000000000000000000000000000000000008,
,//36
#GOGOSTART
10010110,
20020220,
10010110,//39
#GOGOEND
,//40
#GOGOSTART
11101010,
11101010,
11101110,
11111110,//44
#GOGOEND
#BPMCHANGE 132
4,
,
00000220,
1001001000101000,
1001001000202000,
1001001000101000,
1001001000202000,
11100120,
11100210,
11100120,
11100210,//55
#GOGOSTART
11
#BPMCHANGE 135
11,
#BPMCHANGE 139
11
#BPMCHANGE 142
11,
#BPMCHANGE 145
11
#BPMCHANGE 149
11,
#BPMCHANGE 152
11
#BPMCHANGE 155
12,
#BPMCHANGE 159
1110
#BPMCHANGE 162
1110,
#BPMCHANGE 165
1111
#BPMCHANGE 169
1110,
#BPMCHANGE 172
3
#BPMCHANGE 176
3,
#BPMCHANGE 180
3333,//63
#GOGOEND
44,
4440,//65
#GOGOSTART
10010110,
20020220,
10010110,
500000000000000000000000000008000000000000000000,
11100020,
11100020,
11201120,//72
#GOGOEND
40404011,//73
#GOGOSTART
10000111,
01111020,
10110000,
20220111,
00000111,
01111020,
10110105,
000000000000000000000000000008000000000000000000,
10101220,
10110220,
10101220,
10110220,
10101011,
1111,
500000000000000000000000000000000000000000000008,
,
11001100,
11001100,
1111,
1111,
11111111,
33333333,
6,
000000000000000000000000000008000000000000000000,//57
#GOGOEND
4,
,
#END
COURSE:Easy
LEVEL:3
BALLOON:20,5,5,12,6,20
#START
3,
3,
3,
3,
9,
,
0900,
8,
10010000,
1,
10010000,
1,
10010000,
1,
500000000000000000000000000000000008000000000000,
7008,
500000000000000000000000000000000008000000000000,
7008,
,
,
1,
11,
1,
2,
1,
11,
22,
500000000000000000000000000008000000000000000000,
1,
2,
1,
2,
3,
3,
600000000000000000000000000000000000000000000008,
,//36
#GOGOSTART
10010000,
20020000,
10010000,//39
#GOGOEND
,//40
#GOGOSTART
11,
11,
1110,
1110,//44
#GOGOEND
#BPMCHANGE 132
4,
,
,
1100,
1100,
2200,
2200,
1100,
2200,
1100,
2200,//55
#GOGOSTART
1
#BPMCHANGE 135
1,
#BPMCHANGE 139
1
#BPMCHANGE 142
1,
#BPMCHANGE 145
1
#BPMCHANGE 149
1,
#BPMCHANGE 152
1
#BPMCHANGE 155
1,
#BPMCHANGE 159
11
#BPMCHANGE 162
10,
#BPMCHANGE 165
11
#BPMCHANGE 169
10,
#BPMCHANGE 172
7
#BPMCHANGE 176
0,
#BPMCHANGE 180
,//63
#GOGOEND
8,
,//65
#GOGOSTART
10010000,
20020000,
10010000,
500000000000000000000000000008000000000000000000,
10010000,
20020000,
7008,//72
#GOGOEND
,//73
#GOGOSTART
1,
11,
1,
2,
1,
11,
22,
500000000000000000000000000008000000000000000000,
11,
1,
11,
1,
11,
1110,
9,
,
0900,
8,
3,
3,
33,
33,
6,
000000000000000000000000000008000000000000000000,//57
#GOGOEND
4,
,
#END