tja
This commit is contained in:
691
tja/507.tja
Normal file
691
tja/507.tja
Normal file
@@ -0,0 +1,691 @@
|
||||
//TJADB Project
|
||||
TITLE:Chain Chronicle Final Battle Medley
|
||||
TITLEJA:チェインクロニクル 最終決戦メドレー
|
||||
SUBTITLE:--Takahiro Kai/Chain Chronicle
|
||||
SUBTITLEJA:
|
||||
BPM:150
|
||||
WAVE:Chain Chronicle Final Battle Medley.ogg
|
||||
OFFSET:-1.902
|
||||
DEMOSTART:70.227
|
||||
|
||||
//Shinuchi: 5300/2810/1900/1330/1130
|
||||
|
||||
COURSE:Edit
|
||||
LEVEL:9
|
||||
BALLOON:5,7,3,5,7,5,20
|
||||
SCOREINIT:400,1220
|
||||
SCOREDIFF:90
|
||||
|
||||
#START
|
||||
3022201000201022,
|
||||
1022201000102020,
|
||||
|
||||
3022201000201022,
|
||||
1022201022221022,
|
||||
1022201000201022,
|
||||
1022201022111022,
|
||||
|
||||
1022201000201022,
|
||||
1022201022221022,
|
||||
1022201000201022,
|
||||
1022201022112220, //10
|
||||
|
||||
3022201022101022,
|
||||
1022201022221022,
|
||||
1022201022101022,
|
||||
1022201022111022,
|
||||
|
||||
1022201022101022,
|
||||
1022221022101022,
|
||||
1022201022101022,
|
||||
1022111122112220, //18
|
||||
|
||||
#GOGOSTART
|
||||
3022201022221022,
|
||||
1022201220221022,
|
||||
1022201022111022,
|
||||
1022201220221022,
|
||||
|
||||
1022201022221022,
|
||||
1022201220221022,
|
||||
1022201022111022,
|
||||
1022201022221022,
|
||||
|
||||
1022221022111022,
|
||||
2211221122112210,
|
||||
#GOGOEND
|
||||
#BPMCHANGE 172
|
||||
#SCROLL 0.87
|
||||
4, //29
|
||||
|
||||
#SCROLL 1.05
|
||||
70080334,
|
||||
3344,
|
||||
7083,
|
||||
7840,
|
||||
|
||||
70080334,
|
||||
3344,
|
||||
7083,
|
||||
7000080022221110, //37
|
||||
|
||||
3000200000102011,
|
||||
1000200010112000,
|
||||
1000200000102011,
|
||||
1000200010112000,
|
||||
|
||||
3001201000102011,
|
||||
1001201020112010,
|
||||
1001201000112010,
|
||||
1001201012222222, //45
|
||||
|
||||
1011201000112011,
|
||||
1011201000222010,
|
||||
0022201000222010,
|
||||
0022201012112222,
|
||||
|
||||
1011201000112011,
|
||||
1020001000222010,
|
||||
0022201000222210,
|
||||
0022102212112222, //53
|
||||
|
||||
#GOGOSTART
|
||||
1011201110112010,
|
||||
1011201120112010,
|
||||
1011221120112010,
|
||||
1011221120112010,
|
||||
|
||||
1011201111112010,
|
||||
1011201122112010,
|
||||
1011221122112012,
|
||||
1011221112112210, //61
|
||||
|
||||
1011201112112010,
|
||||
1011201122112011,
|
||||
1011221120112022,
|
||||
1011221120112222,
|
||||
|
||||
1011221112112010,
|
||||
1011221122112012,
|
||||
1011221122112212,
|
||||
1111221112112210,
|
||||
1121201121201121,
|
||||
#MEASURE 2/4
|
||||
20122112, //71
|
||||
#GOGOEND
|
||||
|
||||
#MEASURE 4/4
|
||||
1022201022201020,
|
||||
2010202220202022,
|
||||
2020202220202022,
|
||||
200200200000200000200200200200200000200000101010,
|
||||
|
||||
2022201022221022,
|
||||
200200100000200000202020200000200000200000202020,
|
||||
200000200000200000202020200200200000200000202020,
|
||||
200200200000200000202020202020202020202020202020, //79
|
||||
|
||||
#BARLINEOFF
|
||||
#MEASURE 3/4
|
||||
00
|
||||
#BPMCHANGE 136
|
||||
#SCROLL 1
|
||||
0,
|
||||
#BARLINEON
|
||||
#MEASURE 4/4
|
||||
1102020102102107,
|
||||
#MEASURE 5/4
|
||||
00008,
|
||||
#MEASURE 4/4
|
||||
0, //83
|
||||
|
||||
#BARLINEOFF
|
||||
0,
|
||||
0,
|
||||
0,
|
||||
0, //87
|
||||
#END
|
||||
|
||||
|
||||
COURSE:Oni
|
||||
LEVEL:8
|
||||
BALLOON:15
|
||||
SCOREINIT:420,1410
|
||||
SCOREDIFF:108
|
||||
|
||||
#START
|
||||
3022201000101011,
|
||||
1022201000102020,
|
||||
|
||||
3022201000101110,
|
||||
1022201020102220,
|
||||
1022201000101110,
|
||||
1022201020102220,
|
||||
|
||||
1022201000101110,
|
||||
1022201020102220,
|
||||
1022201000101110,
|
||||
1022201020102020, //10
|
||||
|
||||
3022201000101110,
|
||||
1022201020201120,
|
||||
1022201000101110,
|
||||
1022201020201120,
|
||||
|
||||
1022201000102210,
|
||||
1022201020201120,
|
||||
1022201000102210,
|
||||
1011202210112020, //18
|
||||
|
||||
#GOGOSTART
|
||||
3022201022201020,
|
||||
1022201120221020,
|
||||
1022201022201020,
|
||||
1022201120221020,
|
||||
|
||||
1022201022201022,
|
||||
1022201022102022,
|
||||
1022201022201022,
|
||||
1022201022102022,
|
||||
|
||||
1022201022102022,
|
||||
1022102210221120,
|
||||
#GOGOEND
|
||||
#BPMCHANGE 172
|
||||
#SCROLL 0.87
|
||||
3, //29
|
||||
|
||||
#SCROLL 1.05
|
||||
30000334,
|
||||
3344,
|
||||
3003,
|
||||
34,
|
||||
|
||||
30000334,
|
||||
3344,
|
||||
3003,
|
||||
3000000022201110, //37
|
||||
|
||||
30200121,
|
||||
10201120,
|
||||
10200121,
|
||||
10201120,
|
||||
|
||||
3001201000102020,
|
||||
1001201020102000,
|
||||
1001201000102010,
|
||||
1001201022222220, //45
|
||||
|
||||
3011201000112011,
|
||||
1011201000222010,
|
||||
0022201000222010,
|
||||
0022201022222220,
|
||||
|
||||
3011201000112022,
|
||||
1020001000222010,
|
||||
0022201000222010,
|
||||
0022201022112220, //53
|
||||
|
||||
#GOGOSTART
|
||||
3011201010112010,
|
||||
1011201020102010,
|
||||
1011201120112010,
|
||||
1011201120112010,
|
||||
|
||||
1011201010112010,
|
||||
1011201020102010,
|
||||
1011201120112010,
|
||||
1011201120112210, //61
|
||||
|
||||
3011201110112010,
|
||||
1011201120112010,
|
||||
1011202210112210,
|
||||
1011202210112210,
|
||||
|
||||
1011201110112010,
|
||||
1011201120112010,
|
||||
1011221120112022,
|
||||
1011221120112210,
|
||||
1121101121101121,
|
||||
#MEASURE 2/4
|
||||
10112112, //71
|
||||
#GOGOEND
|
||||
|
||||
#MEASURE 4/4
|
||||
1022201022201020,
|
||||
2010002000222020,
|
||||
0022202000222020,
|
||||
0022202000222011,
|
||||
|
||||
2022201022201020,
|
||||
2010002000222020,
|
||||
0022202000222020,
|
||||
0022202222222222, //79
|
||||
|
||||
#BARLINEOFF
|
||||
#MEASURE 3/4
|
||||
00
|
||||
#BPMCHANGE 136
|
||||
#SCROLL 1
|
||||
0,
|
||||
#BARLINEON
|
||||
#MEASURE 4/4
|
||||
1102020102102107,
|
||||
#MEASURE 5/4
|
||||
00008,
|
||||
#MEASURE 4/4
|
||||
0, //83
|
||||
|
||||
#BARLINEOFF
|
||||
0,
|
||||
0,
|
||||
0,
|
||||
0, //87
|
||||
#END
|
||||
|
||||
|
||||
COURSE:Hard
|
||||
LEVEL:6
|
||||
BALLOON:6,10
|
||||
SCOREINIT:470,2070
|
||||
SCOREDIFF:123
|
||||
|
||||
#START
|
||||
30010122,
|
||||
10010122,
|
||||
|
||||
3000001000101110,
|
||||
10012020,
|
||||
1000001000101110,
|
||||
10012020,
|
||||
|
||||
1000001000101110,
|
||||
10012020,
|
||||
1000001000101110,
|
||||
10010122, //10
|
||||
|
||||
3000001000101110,
|
||||
1000001020002011,
|
||||
1000001000101110,
|
||||
1000001020002011,
|
||||
|
||||
1000001000101110,
|
||||
1000001020002011,
|
||||
1000001000101110,
|
||||
1010222010102000, //18
|
||||
|
||||
#GOGOSTART
|
||||
3000201000101110,
|
||||
1020201000101110,
|
||||
1000201000101110,
|
||||
1020201000101110,
|
||||
|
||||
1000201000102220,
|
||||
1020201000101110,
|
||||
1000201000102220,
|
||||
1020201000101110,
|
||||
|
||||
1020201000102220,
|
||||
1110222011102220,
|
||||
#GOGOEND
|
||||
#BPMCHANGE 172
|
||||
#SCROLL 0.87
|
||||
3, //29
|
||||
|
||||
#SCROLL 1
|
||||
30000333,
|
||||
4444,
|
||||
3003,
|
||||
34,
|
||||
|
||||
30000333,
|
||||
4444,
|
||||
3003,
|
||||
34, //37
|
||||
|
||||
30200122,
|
||||
10201120,
|
||||
10200122,
|
||||
10201120,
|
||||
|
||||
30200122,
|
||||
10202120,
|
||||
10200122,
|
||||
1000200022202220, //45
|
||||
|
||||
30210210,
|
||||
00010221,
|
||||
02210221,
|
||||
0022201000202220,
|
||||
|
||||
30210210,
|
||||
12010221,
|
||||
02210221,
|
||||
0022201020202220, //53
|
||||
|
||||
#GOGOSTART
|
||||
30200122,
|
||||
10212120,
|
||||
1000202011102000,
|
||||
1000202011102000,
|
||||
|
||||
10200122,
|
||||
10212120,
|
||||
1000202011102020,
|
||||
1000202011102020, //61
|
||||
|
||||
30200122,
|
||||
10212120,
|
||||
1000202011102220,
|
||||
1000202011102220,
|
||||
|
||||
10200122,
|
||||
10212120,
|
||||
1000222011102220,
|
||||
1000222011102220,
|
||||
1101102202201101,
|
||||
#MEASURE 2/4
|
||||
10220220, //71
|
||||
#GOGOEND
|
||||
|
||||
#MEASURE 4/4
|
||||
10210212,
|
||||
21020222,
|
||||
0020202000222020,
|
||||
0022202000222020,
|
||||
|
||||
30210212,
|
||||
21020222,
|
||||
0020202000222020,
|
||||
0022207000000000, //79
|
||||
|
||||
#BARLINEOFF
|
||||
#MEASURE 3/4
|
||||
80
|
||||
#BPMCHANGE 136
|
||||
0,
|
||||
#BARLINEON
|
||||
#MEASURE 4/4
|
||||
1101010101102207,
|
||||
#MEASURE 5/4
|
||||
00008,
|
||||
#MEASURE 4/4
|
||||
0,
|
||||
|
||||
#BARLINEOFF
|
||||
0,
|
||||
0,
|
||||
0,
|
||||
0, //87
|
||||
#END
|
||||
|
||||
|
||||
COURSE:Normal
|
||||
LEVEL:6
|
||||
BALLOON:4,8
|
||||
SCOREINIT:570,3190
|
||||
SCOREDIFF:163
|
||||
|
||||
#START
|
||||
30010000,
|
||||
10010000,
|
||||
|
||||
30010010,
|
||||
1022,
|
||||
10010010,
|
||||
1022,
|
||||
|
||||
10010010,
|
||||
1022,
|
||||
10010010,
|
||||
10010222, //10
|
||||
|
||||
30010110,
|
||||
1022,
|
||||
10010110,
|
||||
1022,
|
||||
|
||||
10010110,
|
||||
1022,
|
||||
10010110,
|
||||
3344, //18
|
||||
|
||||
#GOGOSTART
|
||||
30010110,
|
||||
10010220,
|
||||
10010110,
|
||||
10010220,
|
||||
|
||||
10110220,
|
||||
10110222,
|
||||
10110220,
|
||||
10110222,
|
||||
|
||||
10110222,
|
||||
11101110,
|
||||
#GOGOEND
|
||||
#BPMCHANGE 172
|
||||
#SCROLL 0.87
|
||||
3, //29
|
||||
|
||||
#SCROLL 1
|
||||
3,
|
||||
3330,
|
||||
3003,
|
||||
34,
|
||||
|
||||
3,
|
||||
3330,
|
||||
3003,
|
||||
34, //37
|
||||
|
||||
30200120,
|
||||
1212,
|
||||
10200120,
|
||||
10201120,
|
||||
|
||||
30200120,
|
||||
1212,
|
||||
10200120,
|
||||
10202222, //45
|
||||
|
||||
30010010,
|
||||
00010201,
|
||||
02010201,
|
||||
02210222,
|
||||
|
||||
30010010,
|
||||
02010201,
|
||||
02010201,
|
||||
02210222, //53
|
||||
|
||||
#GOGOSTART
|
||||
30200120,
|
||||
1222,
|
||||
10201110,
|
||||
10201110,
|
||||
|
||||
10200120,
|
||||
1222,
|
||||
10201110,
|
||||
10201110, //61
|
||||
|
||||
30200120,
|
||||
1222,
|
||||
10201120,
|
||||
10201120,
|
||||
|
||||
10200120,
|
||||
1222,
|
||||
10201120,
|
||||
11201120,
|
||||
11011011,
|
||||
#MEASURE 2/4
|
||||
0220, //71
|
||||
#GOGOEND
|
||||
|
||||
#MEASURE 4/4
|
||||
30030030,
|
||||
00020222,
|
||||
02220222,
|
||||
02220222,
|
||||
|
||||
30030030,
|
||||
03020222,
|
||||
02220222,
|
||||
02270000, //79
|
||||
|
||||
#BARLINEOFF
|
||||
#MEASURE 3/4
|
||||
80
|
||||
#BPMCHANGE 136
|
||||
0,
|
||||
#BARLINEON
|
||||
#MEASURE 4/4
|
||||
1000000101002007,
|
||||
#MEASURE 5/4
|
||||
00008,
|
||||
#MEASURE 4/4
|
||||
0,
|
||||
|
||||
#BARLINEOFF
|
||||
0,
|
||||
0,
|
||||
0,
|
||||
0, //87
|
||||
#END
|
||||
|
||||
|
||||
COURSE:Easy
|
||||
LEVEL:4
|
||||
BALLOON:5,18,9,6
|
||||
SCOREINIT:620,7330
|
||||
SCOREDIFF:245
|
||||
|
||||
#START
|
||||
3,
|
||||
3,
|
||||
|
||||
500000000000000000000000000000000000000000000008,
|
||||
04,
|
||||
500000000000000000000000000008000000000000000000,
|
||||
44,
|
||||
|
||||
500000000000000000000000000008000000000000000000,
|
||||
33,
|
||||
9009,
|
||||
8, //10
|
||||
|
||||
500000000000000000000000000000000000000000000008,
|
||||
04,
|
||||
500000000000000000000000000008000000000000000000,
|
||||
44,
|
||||
|
||||
500000000000000000000000000008000000000000000000,
|
||||
33,
|
||||
600000000000000000000000000008000000000000000000,
|
||||
3333, //18
|
||||
|
||||
#GOGOSTART
|
||||
31,
|
||||
1110,
|
||||
11,
|
||||
2220,
|
||||
|
||||
1110,
|
||||
2220,
|
||||
500000000000000000000000000000000008000000000000,
|
||||
9,
|
||||
0,
|
||||
0900,
|
||||
#GOGOEND
|
||||
#BPMCHANGE 172
|
||||
#SCROLL 0.87
|
||||
8, //29
|
||||
|
||||
#SCROLL 1
|
||||
3,
|
||||
1110,
|
||||
3,
|
||||
4,
|
||||
|
||||
3,
|
||||
1110,
|
||||
3,
|
||||
4, //37
|
||||
|
||||
3,
|
||||
1110,
|
||||
3,
|
||||
22,
|
||||
|
||||
3,
|
||||
2220,
|
||||
3,
|
||||
22, //45
|
||||
|
||||
30030030,
|
||||
00020002,
|
||||
00020002,
|
||||
00020000,
|
||||
|
||||
30030030,
|
||||
03020002,
|
||||
00020002,
|
||||
00020000, //53
|
||||
|
||||
#GOGOSTART
|
||||
3,
|
||||
1110,
|
||||
1210,
|
||||
1210,
|
||||
|
||||
3,
|
||||
1110,
|
||||
1210,
|
||||
1210, //61
|
||||
|
||||
3,
|
||||
2220,
|
||||
1210,
|
||||
1210,
|
||||
|
||||
3,
|
||||
2220,
|
||||
1212,
|
||||
1210,
|
||||
7,
|
||||
#MEASURE 2/4
|
||||
08, //71
|
||||
#GOGOEND
|
||||
|
||||
#MEASURE 4/4
|
||||
30030030,
|
||||
00020002,
|
||||
00020002,
|
||||
00020000,
|
||||
|
||||
30030030,
|
||||
03020002,
|
||||
00020002,
|
||||
000000000000000000500000000000000000000000000008, //79
|
||||
|
||||
#BARLINEOFF
|
||||
#MEASURE 3/4
|
||||
00
|
||||
#BPMCHANGE 136
|
||||
0,
|
||||
#BARLINEON
|
||||
#MEASURE 4/4
|
||||
1000000100001007,
|
||||
#MEASURE 5/4
|
||||
00008,
|
||||
#MEASURE 4/4
|
||||
0,
|
||||
|
||||
#BARLINEOFF
|
||||
0,
|
||||
0,
|
||||
0,
|
||||
0, //87
|
||||
#END
|
||||
Reference in New Issue
Block a user