This commit is contained in:
2026-03-04 23:59:27 +09:00
parent 6e0312f5b4
commit 4b4e2b8c98
1128 changed files with 668765 additions and 0 deletions

627
tja/52.tja Normal file
View File

@@ -0,0 +1,627 @@
//TJADB Project
TITLE:Burning Force Medley
TITLEJA:バーニングフォースメドレー
SUBTITLE:--Yoshinori Kawamoto/Burning Force
BPM:195.032
WAVE:Burning Force Medley.ogg
OFFSET:-1.512
DEMOSTART:1.519
COURSE:Oni
LEVEL:8
SCOREINIT:420
SCOREDIFF:103
#START
10201121,
#MEASURE 3/4
012110,
#MEASURE 4/4
10201121,
#MEASURE 3/4
012122,
#MEASURE 4/4
10201121,
#MEASURE 3/4
012110,
#MEASURE 4/4
10201121,
#MEASURE 3/4
012122,
#MEASURE 4/4
10201121,
#MEASURE 3/4
012110,
#MEASURE 4/4
10201121,
#MEASURE 3/4
012122,
#MEASURE 4/4
10201121,
#MEASURE 3/4
012110,
#MEASURE 4/4
10201121,
#MEASURE 3/4
500000000000000000000000008000000000,//16
#MEASURE 4/4
#GOGOSTART
10101122,
01201110,
10101122,
02102110,
10101122,
01201110,
10101122,
02102130,
10101122,
01201110,
10101122,
02102110,
11210122,
11210121,
10101102,
01212112,
10101122,
0010201110102000,
10101122,
0020101220201000,
10101122,
0010201110102000,
10101122,
0020101220101020,
10101122,
0010201110102000,
10101122,
0020101220201000,
11210122,
11210130,
10101102,
0020001110101010,//48
#GOGOEND
30000003,
00030400,
30000404,
04040400,
30101012,
1000102010201011,
10101404,
0040004000112000,
11211211,
21121212,
11211211,
2010102011101110,
11211211,
21121212,
11211211,
2010102220222010,
1111201010201111,
2010102010201120,
1111201010201111,
2010102022202220,
10120110,
1020111010001020,
10121121,
1000111111111111,
10110221,
00120121,
10110212,
0020102220101020,
10110221,
00120121,
10110221,
03030000,//80
#GOGOSTART
10211101,
01101110,
10211101,
01101120,
10211101,
01101110,
10211204,
01211121,
10211101,
0010201110103000,
10211101,
0010201110104000,
10211101,
0010201110103000,
10211202,
0010201110102010,
20212201,
0010111021122020,
10211121,
01211120,
11211211,
2010221122112222,//102
#GOGOEND
10101121,
0010100010101022,
11101121,
0010100010101022,
10101221,
0010100010101022,
10101221,
000000100000100000500000000000000000008000000000,
1010201110102011,
1010201110102011,
1010201110102010,
0010100010102011,
1122102010102010,
0010201120102030,
#END
COURSE:Hard
LEVEL:6
SCOREINIT:400
SCOREDIFF:110
#START
10001101,
#MEASURE 3/4
012010,
#MEASURE 4/4
10001101,
#MEASURE 3/4
012020,
#MEASURE 4/4
10001101,
#MEASURE 3/4
012010,
#MEASURE 4/4
10001101,
#MEASURE 3/4
012020,
#MEASURE 4/4
10001101,
#MEASURE 3/4
012010,
#MEASURE 4/4
10001101,
#MEASURE 3/4
012020,
#MEASURE 4/4
10001101,
#MEASURE 3/4
012010,
#MEASURE 4/4
10001105,
#MEASURE 3/4
000000000000000000000008000000000000,//16
#MEASURE 4/4
#GOGOSTART
10101001,
01201000,
11101001,
01201000,
10101001,
01201000,
11101001,
01203000,
10101001,
01201000,
11101001,
01201000,
11010020,
11010020,
10101001,
01201111,
10201001,
01211000,
11201001,
01211000,
10201001,
01211000,
11201001,
10110130,
10201001,
01211000,
11201001,
01211000,
11010020,
11010030,
10101101,
01011000,//48
#GOGOEND
10000001,
00010200,
10000202,
02020200,
30000003,
00030400,
30000404,
04040030,
10210210,
21021010,
10210210,
21021110,
10210210,
21021010,
10210210,
21022220,
10210210,
21021010,
10210210,
21021110,
10120010,
12001012,
10110000,
10111111,
10101110,
01101120,
10110102,
02020120,
10101110,
01101120,
10110221,
03030000,//80
#GOGOSTART
10011101,
01101120,
10011101,
01101120,
10011101,
01101120,
30030040,
04001110,
10011101,
01201110,
10011101,
01201110,
10011101,
01201110,
10211011,
01101120,
10211011,
000000100000500000000000000000000000008000000000,
10011101,
01201120,
10210210,
21021130,//102
#GOGOEND
10201101,
01201110,
11201101,
01201110,
10201101,
01201110,
11201101,
000000100000100000500000000000000000008000000000,
11201120,
11201120,
11201121,
01101110,
12121121,
01101103,
,
,
,
,
,
,
,
#END
COURSE:Normal
LEVEL:5
SCOREINIT:600
SCOREDIFF:150
#START
10001100,
#MEASURE 3/4
1,
#MEASURE 4/4
10001100,
#MEASURE 3/4
111,
#MEASURE 4/4
10001100,
#MEASURE 3/4
1,
#MEASURE 4/4
10001100,
#MEASURE 3/4
222,
#MEASURE 4/4
10001100,
#MEASURE 3/4
1,
#MEASURE 4/4
10001100,
#MEASURE 3/4
111,
#MEASURE 4/4
10001100,
#MEASURE 3/4
1,
#MEASURE 4/4
10001105,
#MEASURE 3/4
000000000000000000000008000000000000,//16
#MEASURE 4/4
#GOGOSTART
10001001,
0110,
10001001,
0110,
10001001,
0110,
10001001,
0220,
10001001,
0110,
10001001,
0110,
1001,
1003,
,
0110,
10002001,
0110,
10002001,
0110,
10002001,
0110,
10002002,
0220,
10002001,
0110,
10002001,
0110,
11000010,
11000030,
,
03,//48
#GOGOEND
10000001,
00010100,
10000202,
02020200,
10000001,
00010100,
10000202,
02020030,
10010010,
01001000,
20020020,
02002000,
10010010,
01001000,
20020020,
02003000,
10010010,
01001000,
20020020,
02002000,
10010010,
01001000,
20020020,
500000000000000000000000000000000000000008000000,
0101,
0101,
0101,
0103,
0101,
0101,
10000003,
03030000,//80
#GOGOSTART
10011001,
0110,
10011002,
0220,
10011001,
0110,
30030040,
04003000,
10011001,
0110,
10011002,
0220,
10011001,
0110,
500000000000000000000008000000000000500000000000,
000000000008000000000000300000000000000000000000,
500000000000000000000008000000000000500000000000,
000000000008000000000000300000000000000000000000,
0102,
0102,
1001,
03,//102
#GOGOEND
00001101,
0110,
00001101,
0220,
00001101,
0110,
00001105,
000000000000000000000000000000000000008000000000,
11101110,
11101110,
11101111,
,
10002022,
00000003,
,
,
,
,
,
,
,
#END
COURSE:Easy
LEVEL:4
SCOREINIT:530
SCOREDIFF:140
#START
1,
#MEASURE 3/4
,
#MEASURE 4/4
11,
#MEASURE 3/4
111,
#MEASURE 4/4
1,
#MEASURE 3/4
,
#MEASURE 4/4
22,
#MEASURE 3/4
222,
#MEASURE 4/4
1,
#MEASURE 3/4
,
#MEASURE 4/4
11,
#MEASURE 3/4
111,
#MEASURE 4/4
1,
#MEASURE 3/4
,
#MEASURE 4/4
22,
#MEASURE 3/4
222,//16
#MEASURE 4/4
#GOGOSTART
11,
0110,
11,
0220,
11,
0110,
11,
0220,
11,
0110,
11,
0220,
1,
1003,
,
,
12,
0110,
12,
0220,
12,
0110,
12,
0220,
12,
0110,
12,
0220,
1,
1003,
,
,//48
#GOGOEND
3,
,
4,
0003,
3,
,
4,
0003,
1001,
01,
1001,
01,
1001,
01,
1001,
02,
1001,
01,
2002,
02,
1001,
01,
2002,
000000000000500000000000000000000000000008000000,
0101,
0101,
0101,
0103,
0101,
0101,
10000003,
03030000,//80
#GOGOSTART
10000011,
01,
10000011,
01,
10000011,
01,
3003,
04,
10000011,
01,
10000011,
01,
10000011,
01,
500000000000000000000008000000000000500000000000,
000008000000000000000000300000000000000000000000,
500000000000000000000008000000000000500000000000,
000008000000000000000000300000000000000000500000,
,
000000000000000000000008000000000000000000000000,
3,
,//102
#GOGOEND
0110,
0110,
0110,
0220,
0110,
0110,
10001005,
000000000000000000000000008000000000000000000000,
1111,
1110,
1111,
1110,
10000002,
00000003,
,
,
,
,
,
,
,
#END