tja
This commit is contained in:
502
tja/53.tja
Normal file
502
tja/53.tja
Normal file
@@ -0,0 +1,502 @@
|
||||
//TJADB Project
|
||||
TITLE:Bakemono Tsukiyo
|
||||
TITLEJA:化物月夜
|
||||
SUBTITLE:--Kunikichi
|
||||
SUBTITLEJA:くにきち
|
||||
BPM:180
|
||||
WAVE:Bakemono Tsukiyo.ogg
|
||||
OFFSET:-1.956
|
||||
DEMOSTART:48.615
|
||||
|
||||
COURSE:Oni
|
||||
LEVEL:8
|
||||
BALLOON:12,8,7
|
||||
SCOREINIT:430
|
||||
SCOREDIFF:100
|
||||
|
||||
|
||||
#START
|
||||
|
||||
|
||||
#SCROLL 0.75
|
||||
,
|
||||
2202202202202202,
|
||||
1,
|
||||
10220220,
|
||||
10220220,
|
||||
10220220,
|
||||
1020201022201000,
|
||||
10220220,
|
||||
10220220,
|
||||
10220220,
|
||||
1020201022201000,
|
||||
10101022,
|
||||
0020201110102000,
|
||||
20202011,
|
||||
0022201020201000,
|
||||
10101022,
|
||||
0020201110102000,
|
||||
20202011,
|
||||
0022201020201000,
|
||||
1022202010222020,
|
||||
1022102010202000,
|
||||
1022202010222020,
|
||||
1022102022201000,
|
||||
1022202010222020,
|
||||
1022102010202000,
|
||||
1022202010222020,
|
||||
1010202022201000,
|
||||
1022202000201010,
|
||||
0022201010202000,
|
||||
1022202000201010,
|
||||
0022201020201000,
|
||||
1022202000201010,
|
||||
0022201010202000,
|
||||
1022202020202030,
|
||||
0010101010221121,//35
|
||||
|
||||
#GOGOSTART
|
||||
#SCROLL 1
|
||||
1000222210222210,
|
||||
0010201211112210,
|
||||
1000222210222210,
|
||||
0020102210202212,
|
||||
1022201211112210,
|
||||
0010222210102210,
|
||||
0010202110102070,
|
||||
08,
|
||||
0011102011102010,
|
||||
0022201022202010,
|
||||
0011102011102010,
|
||||
0022201022201020,
|
||||
0011102010222210,
|
||||
#MEASURE 9/8
|
||||
222210222212222210,
|
||||
#MEASURE 4/4
|
||||
0010201010102011,
|
||||
1010201010102220,//51
|
||||
|
||||
#GOGOEND
|
||||
11211211,
|
||||
#MEASURE 2/4
|
||||
20101110,
|
||||
#MEASURE 4/4
|
||||
21121121,
|
||||
#MEASURE 5/8
|
||||
17008,
|
||||
#MEASURE 4/4
|
||||
01121121,
|
||||
#MEASURE 2/4
|
||||
22200022,
|
||||
#MEASURE 4/4
|
||||
23014023,
|
||||
#MEASURE 5/8
|
||||
000000100000600000000008000000,
|
||||
#MEASURE 4/4
|
||||
1010201210102012,
|
||||
1122112211222222,
|
||||
10210230,
|
||||
0000002220201000,
|
||||
#MEASURE 7/8
|
||||
20202020222222,//64
|
||||
|
||||
#GOGOSTART
|
||||
#MEASURE 4/4
|
||||
1022221022221000,
|
||||
#MEASURE 3/4
|
||||
102010102222,
|
||||
#MEASURE 4/4
|
||||
1000222210222210,
|
||||
0010102012201022,
|
||||
1000222210222210,
|
||||
2210202210222010,
|
||||
#MEASURE 3/4
|
||||
001020121022,
|
||||
#MEASURE 2/4
|
||||
10222210,
|
||||
#MEASURE 3/4
|
||||
001020201022,
|
||||
#MEASURE 4/4
|
||||
12212230,
|
||||
#MEASURE 3/4
|
||||
202010102222,
|
||||
#MEASURE 4/4
|
||||
1000222210222210,
|
||||
0010102022222222,
|
||||
1022202210101010,
|
||||
0011220211111110,
|
||||
0010221210102010,
|
||||
0022222222222030,
|
||||
0010221122112030,
|
||||
0010221122112030,
|
||||
0010221122112030,
|
||||
01700803,
|
||||
|
||||
|
||||
#END
|
||||
|
||||
|
||||
COURSE:Hard
|
||||
LEVEL:8
|
||||
BALLOON:8,20
|
||||
|
||||
#START
|
||||
#SCROLL 0.75
|
||||
,
|
||||
20220220,
|
||||
3,
|
||||
10220220,
|
||||
10220220,
|
||||
10220220,
|
||||
22220220,
|
||||
10220220,
|
||||
10220220,
|
||||
10220220,
|
||||
22220220,
|
||||
10101012,
|
||||
02111220,
|
||||
20202011,
|
||||
02212210,
|
||||
10101012,
|
||||
02111220,
|
||||
20202011,
|
||||
02113000,
|
||||
11101110,
|
||||
1020102010222000,
|
||||
11101110,
|
||||
1020102022201000,
|
||||
11101110,
|
||||
1020102010222000,
|
||||
11101110,
|
||||
100000200000100000200000500000000008000000000000,
|
||||
10101022,
|
||||
0022201010202000,
|
||||
10101022,
|
||||
0022201020101000,
|
||||
10101022,
|
||||
0022201010202000,
|
||||
1000100010002220,
|
||||
01113000,//35
|
||||
|
||||
#GOGOSTART
|
||||
#SCROLL 1
|
||||
1000201110100010,
|
||||
0010201110102000,
|
||||
1000201110100010,
|
||||
0022202220101000,
|
||||
1022202010100010,
|
||||
01201127,
|
||||
00000801,
|
||||
0020201011101110,
|
||||
0011101011101010,
|
||||
0022202022202020,
|
||||
0011101011101010,
|
||||
0022202022202020,
|
||||
0011101011101011,
|
||||
#MEASURE 9/8
|
||||
101011101030000070,
|
||||
#MEASURE 4/4
|
||||
,
|
||||
0008,//51
|
||||
|
||||
#GOGOEND
|
||||
11211211,
|
||||
#MEASURE 2/4
|
||||
2112,
|
||||
#MEASURE 4/4
|
||||
11211211,
|
||||
#MEASURE 5/8
|
||||
21121,
|
||||
#MEASURE 4/4
|
||||
12112112,
|
||||
#MEASURE 2/4
|
||||
1121,
|
||||
#MEASURE 4/4
|
||||
1022200011100022,
|
||||
#MEASURE 5/8
|
||||
20300,
|
||||
#MEASURE 4/4
|
||||
6,
|
||||
000000000000000000000000000008000000000000000000,
|
||||
10010030,
|
||||
,
|
||||
#MEASURE 7/8
|
||||
20202020222222,//64
|
||||
|
||||
#GOGOSTART
|
||||
#MEASURE 4/4
|
||||
10010030,
|
||||
#MEASURE 3/4
|
||||
112211,
|
||||
#MEASURE 4/4
|
||||
1000201110100010,
|
||||
0010202011101000,
|
||||
1000201110100010,
|
||||
2220201010100010,
|
||||
#MEASURE 3/4
|
||||
001020111010,
|
||||
#MEASURE 2/4
|
||||
1221,
|
||||
#MEASURE 3/4
|
||||
002020202011,
|
||||
#MEASURE 4/4
|
||||
10210210,
|
||||
#MEASURE 3/4
|
||||
221122,
|
||||
#MEASURE 4/4
|
||||
1000201110100010,
|
||||
01122121,
|
||||
1022202220101010,
|
||||
0022202220101010,
|
||||
0010201110102010,
|
||||
0022222222222010,
|
||||
0010100022202010,
|
||||
0010100022202010,
|
||||
0010100022202010,
|
||||
0010100022222220,
|
||||
,
|
||||
,
|
||||
#END
|
||||
|
||||
COURSE:Normal
|
||||
LEVEL:6
|
||||
BALLOON:6,6,12,16,4,5,5,16
|
||||
|
||||
#START
|
||||
#SCROLL 0.7
|
||||
,
|
||||
20220220,
|
||||
2,
|
||||
20220000,
|
||||
20220000,
|
||||
20220000,
|
||||
2220,
|
||||
20220000,
|
||||
20220000,
|
||||
20220000,
|
||||
2220,
|
||||
1110,
|
||||
22202000,
|
||||
1110,
|
||||
22202000,
|
||||
1110,
|
||||
22202000,
|
||||
1110,
|
||||
22202000,
|
||||
11101110,
|
||||
1110,
|
||||
22202220,
|
||||
2220,
|
||||
11101110,
|
||||
1110,
|
||||
22202220,
|
||||
2220,
|
||||
1110,
|
||||
22222000,
|
||||
1110,
|
||||
22222000,
|
||||
1110,
|
||||
22222000,
|
||||
10101003,
|
||||
,//35
|
||||
|
||||
#GOGOSTART
|
||||
#SCROLL 0.8
|
||||
10201107,
|
||||
0008,
|
||||
10201107,
|
||||
0008,
|
||||
10201101,
|
||||
00201107,
|
||||
,
|
||||
08,
|
||||
01101001,
|
||||
0222,
|
||||
01101001,
|
||||
0222,
|
||||
01101101,
|
||||
#MEASURE 9/8
|
||||
101101107,
|
||||
#MEASURE 4/4
|
||||
0,
|
||||
08,
|
||||
#GOGOEND
|
||||
100000100000000000500000000000000000000000000008,
|
||||
#MEASURE 2/4
|
||||
,
|
||||
#MEASURE 4/4
|
||||
11011050,
|
||||
#MEASURE 5/8
|
||||
000000000008000000000000000000,
|
||||
#MEASURE 4/4
|
||||
100000200000000000000000500000000000000000000008,
|
||||
#MEASURE 2/4
|
||||
,
|
||||
#MEASURE 4/4
|
||||
12012012,
|
||||
#MEASURE 5/8
|
||||
01200,
|
||||
#MEASURE 4/4
|
||||
5,
|
||||
000000000000000000000000000008000000000000000000,
|
||||
30030030,
|
||||
,
|
||||
#MEASURE 7/8
|
||||
,//51
|
||||
|
||||
#GOGOSTART
|
||||
#MEASURE 4/4
|
||||
10010070,
|
||||
#MEASURE 3/4
|
||||
0008,
|
||||
#MEASURE 4/4
|
||||
10201107,
|
||||
0008,
|
||||
10201101,
|
||||
00201105,
|
||||
#MEASURE 3/4
|
||||
000000000000000000000000000000000000000000000008,
|
||||
#MEASURE 2/4
|
||||
0005,
|
||||
#MEASURE 3/4
|
||||
000000000000000000000008000000000000000000,
|
||||
#MEASURE 4/4
|
||||
10010010,
|
||||
#MEASURE 3/4
|
||||
222020,
|
||||
#MEASURE 4/4
|
||||
10001007,
|
||||
0008,
|
||||
10201101,
|
||||
00201107,
|
||||
,
|
||||
00000801,
|
||||
01101002,
|
||||
02202001,
|
||||
01101005,
|
||||
000000000000000000000000000008000000000000300000,
|
||||
,
|
||||
,
|
||||
#END
|
||||
|
||||
COURSE:Easy
|
||||
LEVEL:5
|
||||
BALLOON:5,5,5,12,14,4,5,5,4,5,14
|
||||
|
||||
#START
|
||||
#SCROLL 0.7
|
||||
,
|
||||
,
|
||||
,
|
||||
2220,
|
||||
22,
|
||||
2220,
|
||||
22,
|
||||
2220,
|
||||
22,
|
||||
2220,
|
||||
22,
|
||||
1110,
|
||||
2220,
|
||||
1110,
|
||||
2220,
|
||||
1110,
|
||||
2220,
|
||||
1110,
|
||||
2220,
|
||||
11,
|
||||
1110,
|
||||
22,
|
||||
2220,
|
||||
11,
|
||||
1110,
|
||||
22,
|
||||
2220,
|
||||
1110,
|
||||
2220,
|
||||
1110,
|
||||
2220,
|
||||
1110,
|
||||
2220,
|
||||
10101003,
|
||||
,//35
|
||||
|
||||
#GOGOSTART
|
||||
#SCROLL 0.8
|
||||
10201007,
|
||||
0008,
|
||||
10201007,
|
||||
0008,
|
||||
10201007,
|
||||
00000807,
|
||||
,
|
||||
08,
|
||||
01101000,
|
||||
02202000,
|
||||
01101000,
|
||||
02202000,
|
||||
01101003,
|
||||
#MEASURE 9/8
|
||||
003003007,
|
||||
#MEASURE 4/4
|
||||
0,
|
||||
08,//51
|
||||
|
||||
#GOGOEND
|
||||
100000000000500000000000000000000000000000000008,
|
||||
#MEASURE 2/4
|
||||
,
|
||||
#MEASURE 4/4
|
||||
100000100000500000000000000000000000000000000008,
|
||||
#MEASURE 5/8
|
||||
,
|
||||
#MEASURE 4/4
|
||||
000000100000000000000000500000000000000000000008,
|
||||
#MEASURE 2/4
|
||||
,
|
||||
#MEASURE 4/4
|
||||
01001001,
|
||||
#MEASURE 5/8
|
||||
00100,
|
||||
#MEASURE 4/4
|
||||
5,
|
||||
000000000000000000000000000008000000000000000000,
|
||||
30030030,
|
||||
,
|
||||
#MEASURE 7/8
|
||||
,//63
|
||||
|
||||
#GOGOSTART
|
||||
#MEASURE 4/4
|
||||
10010070,
|
||||
#MEASURE 3/4
|
||||
008,
|
||||
#MEASURE 4/4
|
||||
10201007,
|
||||
0008,
|
||||
10201007,
|
||||
000000000000000000000000000008000000000000500000,//70
|
||||
#MEASURE 3/4
|
||||
,
|
||||
#MEASURE 2/4
|
||||
000000000008000000000000,
|
||||
#MEASURE 3/4
|
||||
,
|
||||
#MEASURE 4/4
|
||||
10010070,
|
||||
#MEASURE 3/4
|
||||
008,
|
||||
#MEASURE 4/4
|
||||
10201007,
|
||||
0008,
|
||||
10201005,
|
||||
000000000000000000000008000000000000000000700000,
|
||||
,
|
||||
00008003,
|
||||
00101004,
|
||||
00202003,
|
||||
00101006,
|
||||
000000000000000000000000000008000000000000300000,
|
||||
,
|
||||
,
|
||||
#END
|
||||
Reference in New Issue
Block a user