tja
This commit is contained in:
507
tja/536.tja
Normal file
507
tja/536.tja
Normal file
@@ -0,0 +1,507 @@
|
||||
//TJADB Project
|
||||
TITLE:Lost One no Goukoku
|
||||
TITLEJA:ロストワンの号哭
|
||||
SUBTITLE:--Neru feat. Kagamine Rin
|
||||
SUBTITLEJA:Neru feat. 鏡音リン
|
||||
BPM:162
|
||||
WAVE:Lost One no Goukoku.ogg
|
||||
OFFSET:-1.724
|
||||
DEMOSTART:63.753
|
||||
|
||||
//Shinuchi: 5090/3230/1730/1160
|
||||
|
||||
|
||||
COURSE:Oni
|
||||
LEVEL:8
|
||||
BALLOON:4,12,12,12
|
||||
SCOREINIT:390,1250
|
||||
SCOREDIFF:93
|
||||
|
||||
#START
|
||||
1010222210102222,
|
||||
1010222210004000, //2
|
||||
|
||||
1020111020201210,
|
||||
2020121020201210,
|
||||
1020111020201210,
|
||||
2020121040404040,
|
||||
|
||||
1020111020201210,
|
||||
2020121020201210,
|
||||
1020111020201210,
|
||||
1122122210221222, //10
|
||||
|
||||
1011002000201011,
|
||||
1002001000102011,
|
||||
2022022000102011,
|
||||
2012001000112011,
|
||||
|
||||
2012002000201011,
|
||||
1012001000102011,
|
||||
1021012000102011,
|
||||
2002001000101010, //18
|
||||
|
||||
1020111020201210,
|
||||
2020121020201210,
|
||||
1020111020201210,
|
||||
2020121012101211,
|
||||
|
||||
1020111020201210,
|
||||
2020121020201210,
|
||||
1020111020201210,
|
||||
2020122270008011, //26
|
||||
|
||||
1011002000201011,
|
||||
1002001000102011,
|
||||
2012022000201010,
|
||||
1101001000102011,
|
||||
|
||||
2011001000102011,
|
||||
1002001000102011,
|
||||
1012201200102010,
|
||||
1002002010112011, //34
|
||||
|
||||
2002001120020011,
|
||||
2002002210010011,
|
||||
2002001120020011,
|
||||
2002001220120011,
|
||||
|
||||
2012011120220111,
|
||||
2021012210210011,
|
||||
1011111110111111,
|
||||
1001003000300022, //42
|
||||
|
||||
#GOGOSTART
|
||||
1011211012102011,
|
||||
1012021010112011,
|
||||
2022122021202022,
|
||||
2021012012202022,
|
||||
|
||||
1011211012102011,
|
||||
1012021011221011,
|
||||
500000000000000000000000000008000000000000100100,
|
||||
7000000000008022, //50
|
||||
|
||||
1011211012102011,
|
||||
1012021010112011,
|
||||
2022122021202022,
|
||||
1021012012202022,
|
||||
|
||||
1011211012102011,
|
||||
1012021022112011,
|
||||
500000000000000000000000000008000000000000100100,
|
||||
7008, //58
|
||||
#GOGOEND
|
||||
|
||||
33000233,
|
||||
00023300,
|
||||
33000233,
|
||||
0000002030030030,
|
||||
|
||||
1111,
|
||||
1020102010201022,
|
||||
1122221122112211,
|
||||
7000000000008022, //66
|
||||
|
||||
#GOGOSTART
|
||||
1011212012102011,
|
||||
1021211011201122,
|
||||
1021122012201222,
|
||||
2221021012221222,
|
||||
|
||||
1021112012221122,
|
||||
1021121012212030,
|
||||
600000000000000000000000000008000000000000300000,
|
||||
3004004030003000,
|
||||
2222002222003000, //75: Vita GGT ends in #74
|
||||
#GOGOEND
|
||||
|
||||
1020111020201210,
|
||||
2020121020201210,
|
||||
1020111020201210,
|
||||
2020121040404040,
|
||||
|
||||
1020111020201210,
|
||||
2020121020201210,
|
||||
1020111020201210,
|
||||
1122122211221222, //83
|
||||
|
||||
1010222210102222,
|
||||
1010222210003000,
|
||||
1010222210102222,
|
||||
1010222210000000,
|
||||
0,
|
||||
0, //89
|
||||
#END
|
||||
|
||||
|
||||
COURSE:Hard
|
||||
LEVEL:7
|
||||
BALLOON:8,3,8,8,8,8
|
||||
SCOREINIT:480,1980
|
||||
SCOREDIFF:115
|
||||
|
||||
#START
|
||||
33003300,
|
||||
33003040, //2
|
||||
|
||||
1010111010001000,
|
||||
1010111010001000,
|
||||
1010111010001000,
|
||||
2020222040404040,
|
||||
|
||||
1010111010001000,
|
||||
1010111010001000,
|
||||
1010111010001000,
|
||||
7008,
|
||||
|
||||
1001001000101000,
|
||||
1001001000002000,
|
||||
1001001000101000,
|
||||
2002002000000000,
|
||||
|
||||
1001001000101000,
|
||||
1001001000002000,
|
||||
1001001000101000,
|
||||
2002002000202000, //18
|
||||
|
||||
1010111010001000,
|
||||
1010111010001000,
|
||||
1010111010001000,
|
||||
2020222020020050,
|
||||
|
||||
0,
|
||||
000000000000000000000000000008000000000000000000,
|
||||
1010111010001000,
|
||||
2020222070008000,
|
||||
|
||||
1001001000101000,
|
||||
1001001000002000,
|
||||
1001001000101000,
|
||||
2002002000000000,
|
||||
|
||||
1001001000101000,
|
||||
1001001000002000,
|
||||
1001001000101020,
|
||||
2002002020000011, //34
|
||||
|
||||
1001001110010011,
|
||||
1001002220020011,
|
||||
1001001110010011,
|
||||
1001002220020011,
|
||||
|
||||
1001001110010011,
|
||||
1001002220020011,
|
||||
1001001000100030,
|
||||
3003003000300011,//42
|
||||
|
||||
#GOGOSTART
|
||||
1011011000202020,
|
||||
1011101010002011,
|
||||
1011011000101020,
|
||||
2022202020002011,
|
||||
|
||||
1011011000202020,
|
||||
1011101010002000,
|
||||
500000000000000000000000000008000000000000000000,
|
||||
7000000000008011,
|
||||
|
||||
1011011000202020,
|
||||
1011101010002011,
|
||||
1011011000101020,
|
||||
2022202020002011,
|
||||
|
||||
1011011000202020,
|
||||
1011101010002000,
|
||||
500000000000000000000000000008000000000000000000,
|
||||
7008,//58
|
||||
#GOGOEND
|
||||
|
||||
33000033,
|
||||
00003300,
|
||||
33000033,
|
||||
0000000040040040,
|
||||
|
||||
1111,
|
||||
12121212,
|
||||
500000000000000000000000000000000008000000000000,
|
||||
7000000000008011, //66
|
||||
|
||||
#GOGOSTART
|
||||
1011011000202020,
|
||||
1011101010001110,
|
||||
1011011010102020,
|
||||
2022202020002011,
|
||||
|
||||
1011011000202020,
|
||||
1011101010002000,
|
||||
500000000000000000000000000008000000000000000000,
|
||||
7008,
|
||||
2222002222003000, //75
|
||||
#GOGOEND
|
||||
|
||||
1010111010101000,
|
||||
1010111010101000,
|
||||
1010111010101000,
|
||||
2020222040404040,
|
||||
|
||||
1010111010101000,
|
||||
1010111010101000,
|
||||
1010111010101000,
|
||||
2022202220202220,
|
||||
|
||||
33003300,
|
||||
33003040,
|
||||
33003300,
|
||||
33003000,
|
||||
0,
|
||||
0, //89
|
||||
#END
|
||||
|
||||
|
||||
COURSE:Normal
|
||||
LEVEL:4
|
||||
BALLOON:7,7,7,9,7
|
||||
SCOREINIT:590,3820
|
||||
SCOREDIFF:155
|
||||
|
||||
#START
|
||||
33,
|
||||
33,
|
||||
|
||||
1110,
|
||||
10111000,
|
||||
1110,
|
||||
20202222,
|
||||
|
||||
1110,
|
||||
10111000,
|
||||
1110,
|
||||
20202220,
|
||||
|
||||
10010000,
|
||||
10010000,
|
||||
10010000,
|
||||
20020000,
|
||||
|
||||
10010000,
|
||||
10010000,
|
||||
10010000,
|
||||
20020000, //18
|
||||
|
||||
10101110,
|
||||
1110,
|
||||
10101110,
|
||||
2250,
|
||||
|
||||
0,
|
||||
000000000000000000000000000008000000000000000000,
|
||||
1110,
|
||||
7008,
|
||||
|
||||
10010010,
|
||||
10010000,
|
||||
10010010,
|
||||
20020000,
|
||||
|
||||
10010010,
|
||||
10010000,
|
||||
10010010,
|
||||
20022001, //34
|
||||
|
||||
10011002,
|
||||
20022001,
|
||||
10011002,
|
||||
20022001,
|
||||
|
||||
10011002,
|
||||
20022000,
|
||||
30030300,
|
||||
40040400, //42
|
||||
|
||||
#GOGOSTART
|
||||
10101110,
|
||||
1110,
|
||||
10101110,
|
||||
2220,
|
||||
|
||||
10101110,
|
||||
1110,
|
||||
500000000000000000000000000008000000000000000000,
|
||||
7008,
|
||||
|
||||
10101110,
|
||||
1110,
|
||||
10101110,
|
||||
2220,
|
||||
|
||||
10101110,
|
||||
1110,
|
||||
500000000000000000000000000008000000000000000000,
|
||||
7008, //58
|
||||
#GOGOEND
|
||||
|
||||
33000033,
|
||||
00003300,
|
||||
33000033,
|
||||
0000000040040040,
|
||||
|
||||
1111,
|
||||
1111,
|
||||
7,
|
||||
8, //66
|
||||
|
||||
#GOGOSTART
|
||||
10101110,
|
||||
10102022,
|
||||
10101110,
|
||||
2220,
|
||||
|
||||
10101110,
|
||||
1120,
|
||||
500000000000000000000000000008000000000000000000,
|
||||
70000800,
|
||||
0, //75
|
||||
#GOGOEND
|
||||
|
||||
1110,
|
||||
10111000,
|
||||
1110,
|
||||
20202222,
|
||||
|
||||
1110,
|
||||
10111000,
|
||||
1110,
|
||||
20202220,
|
||||
|
||||
33003300,
|
||||
33003000,
|
||||
33003300,
|
||||
33004000,
|
||||
0,
|
||||
0, //89
|
||||
#END
|
||||
|
||||
|
||||
COURSE:Easy
|
||||
LEVEL:3
|
||||
BALLOON:5,4,4,7,4
|
||||
SCOREINIT:560,5790
|
||||
SCOREDIFF:175
|
||||
|
||||
#START
|
||||
33,
|
||||
33, //2
|
||||
|
||||
11,
|
||||
1110,
|
||||
11,
|
||||
2200,
|
||||
|
||||
11,
|
||||
1110,
|
||||
11,
|
||||
2220,
|
||||
|
||||
1,
|
||||
1,
|
||||
1,
|
||||
1110,
|
||||
|
||||
1,
|
||||
1,
|
||||
1,
|
||||
2220, //18
|
||||
|
||||
11,
|
||||
1110,
|
||||
11,
|
||||
2220,
|
||||
|
||||
11,
|
||||
1110,
|
||||
11,
|
||||
7008,
|
||||
|
||||
1,
|
||||
1,
|
||||
1,
|
||||
1110,
|
||||
|
||||
1,
|
||||
1,
|
||||
1,
|
||||
2220, //34
|
||||
|
||||
22,
|
||||
22,
|
||||
22,
|
||||
1110,
|
||||
|
||||
22,
|
||||
2220,
|
||||
10010000,
|
||||
30030000, //42
|
||||
|
||||
#GOGOSTART
|
||||
1110,
|
||||
1120,
|
||||
1110,
|
||||
2220,
|
||||
|
||||
1110,
|
||||
1120,
|
||||
500000000000000000000000000008000000000000000000,
|
||||
7008,
|
||||
|
||||
1110,
|
||||
1120,
|
||||
1110,
|
||||
2220,
|
||||
|
||||
1110,
|
||||
1120,
|
||||
500000000000000000000000000008000000000000000000,
|
||||
7008, //58
|
||||
#GOGOEND
|
||||
|
||||
3,
|
||||
3,
|
||||
3,
|
||||
3,
|
||||
|
||||
11,
|
||||
1110,
|
||||
7,
|
||||
8, //66
|
||||
|
||||
#GOGOSTART
|
||||
1110,
|
||||
1120,
|
||||
1110,
|
||||
2220,
|
||||
|
||||
1110,
|
||||
1120,
|
||||
500000000000000000000000000008000000000000000000,
|
||||
7008,
|
||||
0, //75
|
||||
#GOGOEND
|
||||
|
||||
11,
|
||||
1110,
|
||||
11,
|
||||
2200,
|
||||
|
||||
11,
|
||||
1110,
|
||||
11,
|
||||
2220,
|
||||
|
||||
33,
|
||||
33,
|
||||
33,
|
||||
34,
|
||||
0,
|
||||
0, //89
|
||||
#END
|
||||
Reference in New Issue
Block a user