This commit is contained in:
2026-03-04 23:59:27 +09:00
parent 6e0312f5b4
commit 4b4e2b8c98
1128 changed files with 668765 additions and 0 deletions

370
tja/543.tja Normal file
View File

@@ -0,0 +1,370 @@
//TJADB Project
TITLE:Ai MUST GO!
TITLEJA:アイ MUST GO!
SUBTITLE:--Koji Nakagawa feat. Eriko Nakamura/THE iDOLM@STER MUST SONGS Red Album
SUBTITLEJA:「アイドルマスター」より
BPM:107
WAVE:Ai MUST GO!.ogg
OFFSET:-2.484
DEMOSTART:96.654
//shinuchi: 6970/6040/3930/2180
COURSE:Oni
LEVEL:8
BALLOON:
SCOREINIT:710,2370
SCOREDIFF:190
#START
1,
1,
1,
1,
11,
10110000,
3232,
300000200000302202202100, //8
#GOGOSTART
100202000200100202000200,
100202202000100202200200,
100202202000102202000200,
100202202000202200100102,
100202000200100202200200,
100202202000100202201200,
500000000000000000000000000000000008000000000000,
#GOGOEND
103000103000000022100000, //16
10211021,
12110120,
1000201010002011,
12210120,
10211021,
12110123,
600000000000000000000000000008000000000000400000,
600000000000000000000000000008000000000000000000, //24
10211021,
12110120,
1000201010002011,
100200200100000222102100,
10211021,
12110123,
600000000000000000000000000008000000000000400000,
600000000000000000000000000008000000000000000000, //32
100000100000200000100200100000100000200000200020,
100000100000200000100200100000100000200000200020,
1010201210102012,
100000100000200000200100100000100000200000200020,
1010201210102011,
100100200300000100202100,
33403343,
3434,
600000000000000000000000000000000000000000000008,
0, //42
#GOGOSTART
100101200100100101200202,
100101200100100102200202,
100101200100100101200202,
100101200100102200200102,
100000100010200000100200000200100200200100000000,
300200200300000100202100,
100101200100100101200100,
400400400400101202201200, //50
100101200100101202200100,
100101200100100102201202,
100101200100100101200100,
100101200100102200200100,
100000100010200000100200000200100200200100000000,
300200200300000222102100,
101100202200101100202200,
101100202201102201122200, //58
#GOGOEND
6,
000000000000000000000008000000000000000000000000,
0,
0, //62
#END
COURSE:Hard
LEVEL:3
BALLOON:13
SCOREINIT:810,4720
SCOREDIFF:243
#START
1,
1,
1,
1,
11,
10110000,
33,
33, //8
#GOGOSTART
6,
000000000008000000000000000000000000200000000000,
1202,
1222,
1202,
1202,
500000000000000000000000000000000008000000000000,
#GOGOEND
3300, //16
10011001,
10110000,
10011002,
20220000,
10011001,
10110003,
600000000000000000000000000008000000000000400000,
600000000000000000000000000008000000000000000000, //24
10211021,
10110000,
10211021,
20210000,
10211021,
10110003,
600000000000000000000000000008000000000000400000,
600000000000000000000000000008000000000000000000, //32
10101120,
10101120,
10101121,
11221122,
10101121,
11210100,
3434,
3434,
600000000000000000000000000000000000000000000008,
0, //42
#GOGOSTART
11201220,
11201220,
11201220,
11201021,
11221122,
30330000,
1212,
40440000, //50
11201220,
11201220,
11201220,
11201021,
11221122,
30330000,
3434,
3434, //58
#GOGOEND
9,
09008000,
0,
0, //62
#END
COURSE:Normal
LEVEL:3
BALLOON:13
SCOREINIT:950,7550
SCOREDIFF:373
#START
1,
1,
1,
1,
11,
10110000,
33,
33, //8
#GOGOSTART
6,
000000000008000000000000000000000000000000000000,
0202,
0202,
0202,
0202,
500000000000000000000000000000000008000000000000,
#GOGOEND
3300, //16
11,
10110000,
11,
20220000,
11,
10110000,
600000000000000000000000000008000000000000000000,
600000000000000000000000000008000000000000000000, //24
11,
10110000,
11,
20220000,
11,
10110000,
600000000000000000000000000008000000000000000000,
600000000000000000000000000008000000000000000000, //32
1110,
2220,
1110,
2220,
1110,
10110000,
33,
3033,
600000000000000000000000000000000000000000000008,
0, //42
#GOGOSTART
1110,
1110,
1110,
2220,
1111,
30330000,
11,
40440000, //50
1212,
1212,
1212,
1212,
1122,
30330000,
3434,
3434, //58
#GOGOEND
9,
09008000,
0,
0, //62
#END
COURSE:Easy
LEVEL:3
BALLOON:13
SCOREINIT:750,9080
SCOREDIFF:310
#START
1,
1,
1,
1,
11,
1100,
33,
33, //8
#GOGOSTART
6,
000000000008000000000000000000000000000000000000,
0202,
0202,
0202,
0202,
500000000000000000000000000000000008000000000000,
#GOGOEND
3300, //16
11,
1100,
11,
2200,
11,
1100,
600000000000000000000000000008000000000000000000,
600000000000000000000000000008000000000000000000, //24
11,
1100,
11,
2200,
11,
1100,
600000000000000000000000000008000000000000000000,
600000000000000000000000000008000000000000000000, //32
11,
22,
11,
2220,
11,
600000000000000000000000000008000000000000000000,
33,
3033,
600000000000000000000000000000000000000000000008,
0, //42
#GOGOSTART
1110,
1110,
1110,
2220,
11,
30330000,
11,
40440000, //50
1110,
1110,
1110,
2220,
11,
30330000,
3434,
3434, //58
#GOGOEND
9,
09008000,
0,
0, //62
#END