This commit is contained in:
2026-03-04 23:59:27 +09:00
parent 6e0312f5b4
commit 4b4e2b8c98
1128 changed files with 668765 additions and 0 deletions

600
tja/545.tja Normal file
View File

@@ -0,0 +1,600 @@
//TJADB Project
TITLE:TO MAKE THE END OF BATTLE
TITLEJA:TO MAKE THE END OF BATTLE
SUBTITLE:--Yuzo Koshiro/Ys & Ⅱ Chronicles
SUBTITLEJA:「イースⅠ & Ⅱクロニクルズ」より
BPM:232.39
WAVE:TO MAKE THE END OF BATTLE.ogg
OFFSET:-2.308
DEMOSTART:14.702
//Shinuchi: 5160/3790/1820/1520
COURSE:Oni
LEVEL:7
BALLOON:
SCOREINIT:460,1660
SCOREDIFF:115
#START
11220121,
2222,
12,
11221122,
10120110,
11221122,
10120110,
11212120,
11120010,
11221122,
30030030,
3344, //12
#GOGOSTART
11221201,
20121120,
11221201,
20121220,
11210120,
11210120,
22120120,
11212120,
11221201,
20121120,
11221201,
20121220,
12221222,
12221222,
12121212,
2222, //28
11221201,
20121120,
11221201,
20121220,
11210120,
11210120,
22120120,
11212120,
11221201,
20121120,
11221201,
20121220,
21112111,
21112111,
500000000000000008000000500000000000000008000000,
500000000000000008000000500000000000000008000000, //44
#GOGOEND
10201121,
01201202,
10201202,
10201222,
10201121,
01201202,
10201022,
22222222,
33033033,
03303030,
33033033,
03303330,
33033033,
03303030,
33333333,
33333030, //60
11112211,
22221122,
11112211,
22221122,
10120010,
12222020,
10120010,
10122220,
10120010,
10112220,
20020020,
20222222, //72
0,
0,
0,
0,
0,
0,
0,
11221212, //80
#GOGOSTART
11221201,
20121120,
11221201,
20121220,
11121112,
11121112,
12121212,
2222,
11221201,
20121120,
11221201,
20121220,
11210120,
11210120,
22120120,
11212120, //96
11221201,
20121120,
11221201,
20121220,
22212221,
22212221,
11221122,
11221122,
30030033,
#GOGOEND
0,
0, //107
#END
COURSE:Hard
LEVEL:7
BALLOON:
SCOREINIT:470,2010
SCOREDIFF:123
#START
10220220,
1222,
12,
1212,
10220110,
1122,
10220110,
2211,
10220010,
11121120,
30030030,
3344, //12
#GOGOSTART
10201201,
20120120,
10201201,
20120120,
11210120,
11210120,
22120120,
11210120,
10201201,
20120120,
10201201,
20120120,
12212220,
12212220,
12121212,
2, //28
10201201,
20120220,
10201201,
20120220,
11210120,
11210120,
22120120,
11210120,
10201201,
20120220,
10201201,
20120220,
12211210,
12211210,
500000000000000008000000500000000000000008000000,
500000000000000008000000500000000000000008000000, //44
#GOGOEND
10201021,
01201020,
10201021,
01202200,
10201021,
01201020,
10201021,
22222220,
33033033,
03303030,
33033033,
03303330,
33033033,
03303030,
33033033,
03303330, //60
1122,
1122,
2211,
11102220,
10120020,
12022020,
10120020,
10222220,
10120020,
10112220,
20020020,
2222, //72
0,
0,
0,
0,
0,
0,
0,
11201120, //80
#GOGOSTART
10201201,
20120120,
10201201,
20120120,
12212220,
12212220,
12121212,
2,
10201201,
20120220,
10201201,
20120220,
11210120,
11210120,
22120120,
11210120, //96
10201201,
20120220,
10201201,
20120220,
12211210,
12211210,
11221122,
11221122,
30030033,
#GOGOEND
0,
0, //107
#END
COURSE:Normal
LEVEL:5
BALLOON:
SCOREINIT:670,4250
SCOREDIFF:220
#START
#SCROLL 0.85
1,
1110,
22,
2,
10020000,
11,
10020000,
11,
10020000,
11,
30030030,
3, //12
#GOGOSTART
10100100,
10010000,
10100100,
10010000,
10010010,
20020020,
10010010,
20020000,
10100100,
10010000,
10100100,
10010000,
10100100,
10100100,
2222,
2, //28
10100100,
10010010,
10100100,
10010000,
10010010,
20020020,
10010010,
20020000,
10100100,
10010010,
10100100,
10010000,
10100100,
10100100,
500000000000000008000000500000000000000008000000,
500000000000000008000000500000000000000008000000, //44
#GOGOEND
12,
12,
12,
2,
12,
12,
12,
2,
30030030,
03003000,
30030030,
03003000,
30030030,
03003000,
30030030,
03003000, //60
22,
22,
22,
22,
10020000,
11,
10020000,
11,
10020000,
11,
10020020,
2, //72
0,
0,
0,
0,
0,
0,
0,
600000000000000000000000000000000008000000000000, //80
#GOGOSTART
10100100,
10010010,
10100100,
10010000,
10100100,
10100100,
2222,
2,
10100100,
10010010,
10100100,
10010000,
10010010,
20020020,
10010010,
20020000, //96
10100100,
10010010,
10100100,
10010000,
10100100,
10100100,
1212,
1212,
30030033,
#GOGOEND
0,
0, //107
#END
COURSE:Easy
LEVEL:4
BALLOON:
SCOREINIT:560,5710
SCOREDIFF:208
#START
#SCROLL 0.85
1,
11,
22,
2,
10010000,
0,
10010000,
0,
10010000,
0,
30030000,
3, //12
#GOGOSTART
10010010,
1,
10010010,
1,
10010000,
20020000,
10010000,
20020000,
10010010,
1,
10010010,
1,
1110,
1110,
22,
2, //28
10010010,
1,
10010010,
1,
10010000,
20020000,
10010000,
20020000,
10010010,
1,
10010010,
1,
1110,
1110,
5,
000000000000000000000000000008000000000000000000, //44
#GOGOEND
11,
11,
11,
2,
11,
11,
11,
2,
30030030,
0,
30030030,
0,
30030030,
0,
30030030,
0, //60
22,
22,
22,
22,
10020000,
0,
10020000,
0,
10020000,
0,
10020000,
2, //72
0,
0,
0,
0,
0,
0,
0,
600000000000000000000000000008000000000000000000, //80
#GOGOSTART
10010010,
1,
10010010,
1,
1110,
1110,
22,
2,
10010010,
1,
10010010,
1,
10010000,
20020000,
10010000,
20020000, //96
10010010,
1,
10010010,
1,
1110,
1110,
22,
22,
30030030,
#GOGOEND
0,
0, //107
#END