tja
This commit is contained in:
774
tja/547.tja
Normal file
774
tja/547.tja
Normal file
@@ -0,0 +1,774 @@
|
||||
//TJADB Project
|
||||
TITLE:Wonder Momoi
|
||||
TITLEJA:ワンダーモモーイ
|
||||
SUBTITLE:--Haruko Momoi/Wonder Momo
|
||||
BPM:173.89
|
||||
WAVE:Wonder Momoi.ogg
|
||||
OFFSET:-1.727
|
||||
DEMOSTART:0.472
|
||||
|
||||
COURSE:Oni
|
||||
LEVEL:7
|
||||
SCOREINIT:530
|
||||
SCOREDIFF:138
|
||||
|
||||
|
||||
#START
|
||||
|
||||
|
||||
2222,
|
||||
#BPMCHANGE 175
|
||||
3,
|
||||
0000000000000011,
|
||||
1,
|
||||
0000000000000011,
|
||||
|
||||
#SECTION
|
||||
#BRANCHSTART p,75,90
|
||||
#N
|
||||
1000000000000011,
|
||||
1000000000000011,
|
||||
1000001110000011,
|
||||
1010202011101110,
|
||||
|
||||
#E
|
||||
1000000000000011,
|
||||
1000000000000011,
|
||||
1000001110000011,
|
||||
1010202011221020,
|
||||
|
||||
#M
|
||||
1000000000000011,
|
||||
1000000000000011,
|
||||
1000001110000011,
|
||||
1010101011111000,
|
||||
|
||||
#SECTION
|
||||
#BRANCHSTART p,75,90
|
||||
#N
|
||||
12101210,
|
||||
12120222,
|
||||
12101210,
|
||||
12220222,
|
||||
1000101000222020,
|
||||
#BPMCHANGE 175.51
|
||||
1000101000222020,
|
||||
#BPMCHANGE 175
|
||||
12101210,
|
||||
03333000,
|
||||
|
||||
#E
|
||||
12021202,
|
||||
12020201,
|
||||
12021202,
|
||||
12020201,
|
||||
12021202,
|
||||
#BPMCHANGE 175.51
|
||||
12021102,
|
||||
#BPMCHANGE 175
|
||||
12021202,
|
||||
1030303030001001,
|
||||
|
||||
#M
|
||||
1011102011101000,
|
||||
1011102000222020,
|
||||
1011102011101000,
|
||||
1022202000111020,
|
||||
1011101000222000,
|
||||
#BPMCHANGE 175.51
|
||||
1011101000222000,
|
||||
#BPMCHANGE 175
|
||||
1011200010112000,
|
||||
03333040,
|
||||
|
||||
#GOGOSTART
|
||||
#SECTION
|
||||
#BRANCHSTART p,75,90
|
||||
#N
|
||||
1020100011102010,
|
||||
1000101010222020,
|
||||
1020100011102010,
|
||||
1000101010222020,
|
||||
1020100011102010,
|
||||
10111222,
|
||||
1011102010111020,
|
||||
1220,
|
||||
#BPMCHANGE 175.9
|
||||
0110,
|
||||
#BPMCHANGE 175
|
||||
33,
|
||||
3,
|
||||
#GOGOEND
|
||||
500000000000000000000008000000000000000000000000,
|
||||
|
||||
#E
|
||||
1020111010202220,
|
||||
1020111010202220,
|
||||
1020111010202220,
|
||||
1020222010202220,
|
||||
1020111010202220,
|
||||
1020111010202220,
|
||||
12211212,
|
||||
1110,
|
||||
#BPMCHANGE 175.9
|
||||
0110,
|
||||
#BPMCHANGE 175
|
||||
33,
|
||||
3,
|
||||
#GOGOEND
|
||||
2210,
|
||||
|
||||
#M
|
||||
1011102010111020,
|
||||
1011102010222020,
|
||||
1011202010112020,
|
||||
1011101010222020,
|
||||
11011222,
|
||||
1010001010222020,
|
||||
2022202020222020,
|
||||
4110,
|
||||
0110,
|
||||
33,
|
||||
3,
|
||||
#GOGOEND
|
||||
500000000000000000000008000000000000000000000000,
|
||||
|
||||
#BPMCHANGE 174.42
|
||||
#SECTION
|
||||
#BRANCHSTART p,75,90
|
||||
#N
|
||||
1110201000222000,
|
||||
#BPMCHANGE 175
|
||||
1110201000222000,
|
||||
11211120,
|
||||
1010201011102000,
|
||||
1000001000111000,
|
||||
2000002000111000,
|
||||
11211121,
|
||||
1010101011101000,
|
||||
|
||||
#E
|
||||
1000201011102010,
|
||||
#BPMCHANGE 175
|
||||
101020101110201,
|
||||
11211121,
|
||||
1000201011102010,
|
||||
1000201000111000,
|
||||
1000201000222000,
|
||||
11211121,
|
||||
1020102011221010,
|
||||
|
||||
#M
|
||||
1122101000222000,
|
||||
#BPMCHANGE 175
|
||||
1122101000222000,
|
||||
1110200011102000,
|
||||
1110201000112020,
|
||||
1022201000112020,
|
||||
1022201000111000,
|
||||
11101110,
|
||||
11110000,
|
||||
|
||||
#SECTION
|
||||
#BRANCHSTART p,75,90
|
||||
#N
|
||||
1110201000222020,
|
||||
1110201000222020,
|
||||
11211120,
|
||||
1010201011102000,
|
||||
3000003000111000,
|
||||
#BPMCHANGE 173.96
|
||||
4000004000222000,
|
||||
#BPMCHANGE 175
|
||||
11211121,
|
||||
1000101000222020,
|
||||
|
||||
#E
|
||||
1000201011102010,
|
||||
1010201011102010,
|
||||
11211121,
|
||||
1000201011102010,
|
||||
3001103000111000,
|
||||
#BPMCHANGE 173.96
|
||||
4002204000222000,
|
||||
#BPMCHANGE 715
|
||||
11211121,
|
||||
1020102011221010,
|
||||
|
||||
#M
|
||||
1122102000222000,
|
||||
1122102000222000,
|
||||
1110200011102000,
|
||||
1110201000112020,
|
||||
3022203000000000,
|
||||
#BPMCHANGE 173.96
|
||||
4022204000000000,
|
||||
#BPMCHANGE 175
|
||||
11101110,
|
||||
1010101000222030,
|
||||
|
||||
#GOGOSTART
|
||||
#BPMCHANGE 176
|
||||
#SECTION
|
||||
#BRANCHSTART p,75,90
|
||||
#N
|
||||
3000001000222020,
|
||||
#BPMCHANGE 175
|
||||
3000000100022202,
|
||||
11221122,
|
||||
1110202000111010,
|
||||
4000002000111010,
|
||||
#BPMCHANGE 174
|
||||
4000002000111010,
|
||||
#BPMCHANGE 175
|
||||
1000001110000011,
|
||||
#BPMCHANGE 176
|
||||
11,
|
||||
#BPMCHANGE 175
|
||||
500000000000000000000000000000000000000000000008,
|
||||
#GOGOEND
|
||||
,
|
||||
10101110,
|
||||
1110111030000000,
|
||||
|
||||
#E
|
||||
1000201122102010,
|
||||
#BPMCHANGE 175
|
||||
1000201122102000,
|
||||
1010201011102010,
|
||||
1122101000111020,
|
||||
1010201122102010,
|
||||
#BPMCHANGE 174
|
||||
1010201122102000,
|
||||
#BPMCHANGE 175
|
||||
1000001110000011,
|
||||
#BPMCHANGE 176
|
||||
11,
|
||||
#BPMCHANGE 175
|
||||
500000000000000000000000000000000000000000000008,
|
||||
#GOGOEND
|
||||
,
|
||||
10201120,
|
||||
1022101020000000,
|
||||
|
||||
#M
|
||||
3022203000222040,
|
||||
#BPMCHANGE 175
|
||||
3022203000222020,
|
||||
1011202010112020,
|
||||
1000101000222030,
|
||||
4011104000111010,
|
||||
#BPMCHANGE 174
|
||||
4011104000111010,
|
||||
#BPMCHANGE 175
|
||||
1000001110000011,
|
||||
#BPMCHANGE 176
|
||||
11,
|
||||
#BPMCHANGE 175
|
||||
500000000000000000000000000000000000000000000008,
|
||||
#GOGOEND
|
||||
,
|
||||
10101110,
|
||||
1112112030000000,
|
||||
|
||||
#SECTION
|
||||
#BRANCHSTART p,75,90
|
||||
#N
|
||||
10022000,
|
||||
1220,
|
||||
10022020,
|
||||
10222000,
|
||||
10220220,
|
||||
10220020,
|
||||
10202220,
|
||||
1,
|
||||
10221000,
|
||||
10221020,
|
||||
12201220,
|
||||
12201000,
|
||||
#BPMCHANGE 174
|
||||
12021220,
|
||||
#BPMCHANGE 175
|
||||
10221000,
|
||||
12221020,
|
||||
1000000011111000,
|
||||
|
||||
#E
|
||||
10002002,
|
||||
20002002,
|
||||
20022000,
|
||||
2,
|
||||
20002002,
|
||||
20002002,
|
||||
20022002,
|
||||
2,
|
||||
10221002,
|
||||
10221002,
|
||||
10021022,
|
||||
1,
|
||||
#BPMCHANGE 174
|
||||
10221002,
|
||||
#BPMCHANGE 175
|
||||
10221002,
|
||||
10021020,
|
||||
11,
|
||||
|
||||
#M
|
||||
10220020,
|
||||
10220020,
|
||||
10022020,
|
||||
1000002220000000,
|
||||
10220020,
|
||||
10220020,
|
||||
10022020,
|
||||
1,
|
||||
10201220,
|
||||
10221020,
|
||||
12201220,
|
||||
12201000,
|
||||
#BPMCHANGE 174
|
||||
12021222,
|
||||
#BPMCHANGE 175
|
||||
10221000,
|
||||
12221022,
|
||||
1000000011111000,
|
||||
|
||||
#GOGOSTART
|
||||
#SECTION
|
||||
#BRANCHSTART p,75,90
|
||||
#N
|
||||
1000001110202000,
|
||||
1000001110202020,
|
||||
1000001110202000,
|
||||
11221000,
|
||||
1010101000222000,
|
||||
1010101000222000,
|
||||
#BPMCHANGE 176
|
||||
12121011,
|
||||
#BPMCHANGE 175
|
||||
00000110,
|
||||
|
||||
#E
|
||||
3000201020101110,
|
||||
1020100020102220,
|
||||
1000101020101110,
|
||||
1020100020102220,
|
||||
1000201020101110,
|
||||
1020100020102220,
|
||||
#BPMCHANGE 176
|
||||
1010202010102220,
|
||||
#BPMCHANGE 175
|
||||
1020100011102000,
|
||||
|
||||
#M
|
||||
1010001110202000,
|
||||
1010001110202020,
|
||||
1110001110202000,
|
||||
1110222010000000,
|
||||
11110222,
|
||||
11110222,
|
||||
#BPMCHANGE 176
|
||||
1120112010001010,
|
||||
#BPMCHANGE 175
|
||||
00000110,
|
||||
|
||||
#SECTION
|
||||
#BRANCHSTART p,75,90
|
||||
#N
|
||||
1011101000222000,
|
||||
2022202000101000,
|
||||
1011101000222000,
|
||||
500000000000000000000000000000000008000000000000,
|
||||
1110101000222000,
|
||||
1110101000222020,
|
||||
30022000,
|
||||
32,
|
||||
3,
|
||||
#GOGOEND
|
||||
,
|
||||
,
|
||||
0000000000001111,
|
||||
|
||||
#E
|
||||
3000201020101110,
|
||||
1020100020102220,
|
||||
1000101020101110,
|
||||
1020100020102220,
|
||||
1000001020101110,
|
||||
1000001020102220,
|
||||
3,
|
||||
4,
|
||||
3,
|
||||
#GOGOEND
|
||||
,
|
||||
,
|
||||
0000000000002111,
|
||||
|
||||
#M
|
||||
1011101000222010,
|
||||
2022202000111020,
|
||||
1011101000222020,
|
||||
500000000000000000000000000000000008000000000000,
|
||||
1011101000222020,
|
||||
1011101000222020,
|
||||
3000002220002000,
|
||||
32,
|
||||
3,
|
||||
|
||||
#GOGOEND
|
||||
,
|
||||
,
|
||||
0000000000002221,
|
||||
|
||||
#BRANCHEND
|
||||
|
||||
|
||||
#END
|
||||
|
||||
|
||||
COURSE:Hard
|
||||
LEVEL:6
|
||||
SCOREINIT:620
|
||||
SCOREDIFF:110
|
||||
|
||||
|
||||
#START
|
||||
|
||||
|
||||
2222,
|
||||
3,
|
||||
00000001,
|
||||
1,
|
||||
00000001,
|
||||
10000001,
|
||||
10000001,
|
||||
10011001,
|
||||
10101110,
|
||||
12101210,
|
||||
12120222,
|
||||
12101210,
|
||||
12220222,
|
||||
1000101000222000,
|
||||
1000101000222000,
|
||||
12101210,
|
||||
03333000,//17
|
||||
|
||||
#GOGOSTART
|
||||
11101110,
|
||||
1000101010222020,
|
||||
11101110,
|
||||
1000101010222020,
|
||||
10101110,
|
||||
10111222,
|
||||
1011101010111010,
|
||||
1220,
|
||||
0110,
|
||||
12,
|
||||
3,//28
|
||||
|
||||
#GOGOEND
|
||||
500000000000000000000008000000000000000000000000,
|
||||
1110101000202000,
|
||||
1110101000202000,
|
||||
11201120,
|
||||
11210120,
|
||||
1000001000111000,
|
||||
2000002000111000,
|
||||
11101110,
|
||||
11110000,
|
||||
1110101000222000,
|
||||
1110101000222000,
|
||||
11201120,
|
||||
11210120,
|
||||
30030110,
|
||||
40040220,
|
||||
11101110,
|
||||
1000101000222020,//45
|
||||
|
||||
#GOGOSTART
|
||||
3000001000222020,
|
||||
3000001000222020,
|
||||
11221122,
|
||||
1000202000111010,
|
||||
4000002000111010,
|
||||
4000002000111010,
|
||||
1000001110000011,
|
||||
11,
|
||||
500000000000000000000000000000000000000000000008,//54
|
||||
|
||||
#GOGOEND
|
||||
,
|
||||
10101110,
|
||||
3330,
|
||||
10022000,
|
||||
1220,
|
||||
10022020,
|
||||
10222000,
|
||||
10220220,
|
||||
10220020,
|
||||
10202220,
|
||||
1,
|
||||
10221000,
|
||||
10221020,
|
||||
12201220,
|
||||
12201000,
|
||||
12021220,
|
||||
10221000,
|
||||
12221020,
|
||||
1000000011111000,//73
|
||||
|
||||
#GOGOSTART
|
||||
1000001110202000,
|
||||
1000001110202020,
|
||||
1000001110202000,
|
||||
10221000,
|
||||
11110220,
|
||||
11110220,
|
||||
12121011,
|
||||
00000110,
|
||||
1011101000202000,
|
||||
2022202000101000,
|
||||
1011101000202000,
|
||||
500000000000000000000000000000000008000000000000,
|
||||
1110101000202000,
|
||||
1110101000202020,
|
||||
30022000,
|
||||
32,
|
||||
3,//90
|
||||
|
||||
#GOGOEND
|
||||
,
|
||||
,
|
||||
0000000000001110,
|
||||
,
|
||||
,
|
||||
#END
|
||||
|
||||
COURSE:Normal
|
||||
LEVEL:5
|
||||
SCOREINIT:500
|
||||
SCOREDIFF:160
|
||||
|
||||
#START
|
||||
2222,
|
||||
3,
|
||||
00000001,
|
||||
1,
|
||||
00000001,
|
||||
10000001,
|
||||
10000001,
|
||||
10011001,
|
||||
1111,
|
||||
1111,
|
||||
10100220,
|
||||
1111,
|
||||
10100220,
|
||||
10110000,
|
||||
10110220,
|
||||
1111,
|
||||
03033000,//17
|
||||
|
||||
#GOGOSTART
|
||||
10101110,
|
||||
10111000,
|
||||
10101110,
|
||||
10111000,
|
||||
1212,
|
||||
10111000,
|
||||
11101110,
|
||||
1220,
|
||||
0110,
|
||||
12,
|
||||
3,//28
|
||||
|
||||
#GOGOEND
|
||||
500000000000000000000008000000000000000000000000,
|
||||
10110020,
|
||||
10110000,
|
||||
1212,
|
||||
10110000,
|
||||
10010220,
|
||||
10010000,
|
||||
1212,
|
||||
10110000,
|
||||
10110020,
|
||||
10110000,
|
||||
1212,
|
||||
10110000,
|
||||
30030000,
|
||||
40040000,
|
||||
1212,
|
||||
10000222,//45
|
||||
|
||||
#GOGOSTART
|
||||
20000111,
|
||||
1,
|
||||
11102220,
|
||||
10100111,
|
||||
10000222,
|
||||
20000111,
|
||||
10001001,
|
||||
11,
|
||||
500000000000000000000000000000000000000000000008,//54
|
||||
|
||||
#GOGOEND
|
||||
,
|
||||
10101110,
|
||||
3330,
|
||||
10022000,
|
||||
1220,
|
||||
10022000,
|
||||
1220,
|
||||
10220000,
|
||||
10220000,
|
||||
1212,
|
||||
,
|
||||
1210,
|
||||
10222000,
|
||||
1210,
|
||||
10222000,
|
||||
10220000,
|
||||
10220000,
|
||||
10220020,
|
||||
1,//73
|
||||
|
||||
#GOGOSTART
|
||||
10011020,
|
||||
10011020,
|
||||
10011020,
|
||||
1110,
|
||||
11110000,
|
||||
22220000,
|
||||
10101011,
|
||||
,
|
||||
10110020,
|
||||
10110020,
|
||||
10110020,
|
||||
500000000000000000000000000000000008000000000000,
|
||||
10110220,
|
||||
10110220,
|
||||
32,
|
||||
32,
|
||||
3,
|
||||
#GOGOEND
|
||||
,
|
||||
,
|
||||
,
|
||||
,
|
||||
,
|
||||
#END
|
||||
|
||||
COURSE:Easy
|
||||
LEVEL:4
|
||||
SCOREINIT:430
|
||||
SCOREDIFF:140
|
||||
|
||||
#START
|
||||
,
|
||||
3,
|
||||
,
|
||||
3,
|
||||
,
|
||||
3,
|
||||
3,
|
||||
33,
|
||||
1110,
|
||||
1111,
|
||||
1202,
|
||||
1111,
|
||||
1202,
|
||||
1102,
|
||||
1102,
|
||||
11,
|
||||
3330,//17
|
||||
|
||||
#GOGOSTART
|
||||
1111,
|
||||
1110,
|
||||
1111,
|
||||
1110,
|
||||
11,
|
||||
1110,
|
||||
2222,
|
||||
2,
|
||||
0110,
|
||||
11,
|
||||
3,//28
|
||||
|
||||
#GOGOEND
|
||||
500000000000000000000008000000000000000000000000,
|
||||
10010000,
|
||||
10010000,
|
||||
1111,
|
||||
1,
|
||||
10010000,
|
||||
10010000,
|
||||
1111,
|
||||
1,
|
||||
20020000,
|
||||
20020000,
|
||||
1111,
|
||||
1,
|
||||
30030000,
|
||||
40040000,
|
||||
1111,
|
||||
1,//45
|
||||
|
||||
#GOGOSTART
|
||||
30030000,
|
||||
40040000,
|
||||
1111,
|
||||
1,
|
||||
30030000,
|
||||
40040000,
|
||||
11,
|
||||
11,
|
||||
500000000000000000000000000000000000000000000008,//54
|
||||
|
||||
#GOGOEND
|
||||
,
|
||||
1111,
|
||||
3330,
|
||||
12,
|
||||
1220,
|
||||
12,
|
||||
1,
|
||||
1202,
|
||||
1200,
|
||||
1212,
|
||||
,
|
||||
12,
|
||||
1220,
|
||||
12,
|
||||
1220,
|
||||
1202,
|
||||
1200,
|
||||
1212,
|
||||
1,//73
|
||||
|
||||
#GOGOSTART
|
||||
1110,
|
||||
1110,
|
||||
1111,
|
||||
1,
|
||||
1100,
|
||||
2200,
|
||||
1212,
|
||||
0,
|
||||
1100,
|
||||
1100,
|
||||
1102,
|
||||
2,
|
||||
1100,
|
||||
1100,
|
||||
32,
|
||||
32,
|
||||
3,//90
|
||||
|
||||
#GOGOEND
|
||||
,
|
||||
,
|
||||
,
|
||||
,
|
||||
,
|
||||
#END
|
||||
Reference in New Issue
Block a user