tja
This commit is contained in:
704
tja/548.tja
Normal file
704
tja/548.tja
Normal file
@@ -0,0 +1,704 @@
|
||||
//TJADB Project
|
||||
TITLE:Koi Gensou -Love Fantasy-
|
||||
TITLEJA:恋幻想(Love Fantasy)
|
||||
SUBTITLE:--HONOKA
|
||||
SUBTITLEJA:--HONOKA
|
||||
BPM:183
|
||||
WAVE:Koi Gensou -Love Fantasy-.ogg
|
||||
OFFSET:-1.442
|
||||
DEMOSTART:64.392
|
||||
|
||||
//Shinuchi: 5750/2900/2180/1510
|
||||
|
||||
COURSE:Oni
|
||||
LEVEL:8
|
||||
BALLOON:4,20
|
||||
SCOREINIT:490,1540
|
||||
SCOREDIFF:123
|
||||
|
||||
#START
|
||||
#MEASURE 3/4
|
||||
211211211,
|
||||
112112212,
|
||||
300000007,
|
||||
000008000000000000000000000000200200,
|
||||
210110,
|
||||
|
||||
101010100011,
|
||||
200010222010,
|
||||
100010221000,
|
||||
200010221020,
|
||||
101010100011,
|
||||
|
||||
200010222010,
|
||||
100010221000,
|
||||
200010221020,
|
||||
101010001022,
|
||||
200030002022, //15
|
||||
|
||||
111110201000,
|
||||
201210,
|
||||
000020200022,
|
||||
100010221000,
|
||||
|
||||
111110102000,
|
||||
222220201000,
|
||||
111000201020,
|
||||
111000201000,
|
||||
|
||||
111111,
|
||||
202020221010,
|
||||
202000222020,
|
||||
002220202222,
|
||||
|
||||
100010200011,
|
||||
211212,
|
||||
100011112000,
|
||||
200022221000, //31
|
||||
|
||||
100010200011,
|
||||
211212,
|
||||
100010221000,
|
||||
200010221020,
|
||||
102010001022,
|
||||
200300222,
|
||||
|
||||
111110201000,
|
||||
201210,
|
||||
000020200022,
|
||||
100010221000,
|
||||
|
||||
111110102000,
|
||||
222220201000,
|
||||
111000201020,
|
||||
111000201000, //45
|
||||
|
||||
101010200022,
|
||||
201022,
|
||||
100000000022,
|
||||
201112,
|
||||
|
||||
111,
|
||||
200202,
|
||||
101112,
|
||||
202210,
|
||||
|
||||
101112,
|
||||
202221,
|
||||
101111,
|
||||
202222, //57
|
||||
|
||||
201020201022,
|
||||
#MEASURE 2/4
|
||||
200100202020,
|
||||
#MEASURE 3/4
|
||||
201020201022,
|
||||
#MEASURE 2/4
|
||||
200100202020,
|
||||
|
||||
#MEASURE 3/4
|
||||
201022222010,
|
||||
#MEASURE 2/4
|
||||
22221111,
|
||||
#MEASURE 3/4
|
||||
212222212,
|
||||
222111222, //65
|
||||
|
||||
#GOGOSTART
|
||||
101120101020,
|
||||
102010221000,
|
||||
101120201020,
|
||||
202010221020,
|
||||
|
||||
101120201020,
|
||||
101120112020,
|
||||
111120201020,
|
||||
101020111020,
|
||||
|
||||
101120102020,
|
||||
102010221000,
|
||||
101120201020,
|
||||
201220102010,
|
||||
|
||||
101120102020,
|
||||
101010221020,
|
||||
101120102020,
|
||||
102220201022, //81
|
||||
|
||||
100010001011,
|
||||
200020002022,
|
||||
101011,
|
||||
202110,
|
||||
|
||||
100212,
|
||||
200020101022,
|
||||
100000201022,
|
||||
100000221022,
|
||||
|
||||
111210,
|
||||
102210221020,
|
||||
120202,
|
||||
002020002220,
|
||||
|
||||
100020200022,
|
||||
211012,
|
||||
100010200022,
|
||||
121002, //97
|
||||
|
||||
100000200022,
|
||||
021002,
|
||||
100010222020,
|
||||
002010002220,
|
||||
|
||||
111,
|
||||
201012,
|
||||
010,
|
||||
100000001022,
|
||||
101201,
|
||||
221011, //107
|
||||
|
||||
1,
|
||||
0,
|
||||
2,
|
||||
0,
|
||||
|
||||
101010121010,
|
||||
200020221000,
|
||||
102210201000,
|
||||
200020221000,
|
||||
|
||||
101000221010,
|
||||
000000200200100000100000200020002000,
|
||||
101022221010,
|
||||
202020100100000000, //119
|
||||
#GOGOEND
|
||||
|
||||
070,
|
||||
0,
|
||||
8,
|
||||
0,
|
||||
|
||||
0,
|
||||
0,
|
||||
0, //126
|
||||
#END
|
||||
|
||||
|
||||
COURSE:Hard
|
||||
LEVEL:6
|
||||
BALLOON:3,4,3,4,5
|
||||
SCOREINIT:540,2320
|
||||
SCOREDIFF:138
|
||||
|
||||
#START
|
||||
#MEASURE 3/4
|
||||
111100200,
|
||||
200111100,
|
||||
300000007,
|
||||
008000000000000200,
|
||||
210100,
|
||||
|
||||
112101,
|
||||
202100,
|
||||
011,
|
||||
211,
|
||||
112101,
|
||||
|
||||
202100,
|
||||
011,
|
||||
211,
|
||||
101010001011,
|
||||
120, //15
|
||||
|
||||
100210,
|
||||
201210,
|
||||
002102,
|
||||
121,
|
||||
|
||||
101,
|
||||
2,
|
||||
500000000000000000000008000000000000,
|
||||
500000000000000000000008000000000000,
|
||||
|
||||
111111,
|
||||
222111,
|
||||
220022,
|
||||
002200,
|
||||
|
||||
111101,
|
||||
1,
|
||||
011,
|
||||
011, //31
|
||||
|
||||
700801,
|
||||
1,
|
||||
011,
|
||||
211,
|
||||
200100100000202020,
|
||||
230,
|
||||
|
||||
100210,
|
||||
201210,
|
||||
002102,
|
||||
121,
|
||||
|
||||
101,
|
||||
2,
|
||||
500000000000000000000008000000000000,
|
||||
500000000000000000000008000000000000, //45
|
||||
|
||||
225000,
|
||||
000000000000000000000008000000000000,
|
||||
100000101022,
|
||||
202210,
|
||||
|
||||
101222,
|
||||
101122,
|
||||
201112,
|
||||
202111,
|
||||
|
||||
202211,
|
||||
102221,
|
||||
101222,
|
||||
101122, //57
|
||||
|
||||
200020200022,
|
||||
#MEASURE 2/4
|
||||
200222,
|
||||
#MEASURE 3/4
|
||||
200020200022,
|
||||
#MEASURE 2/4
|
||||
200222,
|
||||
|
||||
#MEASURE 3/4
|
||||
278,
|
||||
#MEASURE 2/4
|
||||
78,
|
||||
#MEASURE 3/4
|
||||
002202202,
|
||||
202202200, //65
|
||||
|
||||
#GOGOSTART
|
||||
101202,
|
||||
101120,
|
||||
101110201000,
|
||||
202112,
|
||||
|
||||
101210,
|
||||
101210,
|
||||
101121,
|
||||
102222,
|
||||
|
||||
101202,
|
||||
101120,
|
||||
111210,
|
||||
222110,
|
||||
|
||||
101210,
|
||||
102212,
|
||||
101210,
|
||||
102222, //81
|
||||
|
||||
101011,
|
||||
202210,
|
||||
101011,
|
||||
202110,
|
||||
|
||||
101202,
|
||||
100010102011,
|
||||
101210,
|
||||
202112,
|
||||
|
||||
101210,
|
||||
101110201000,
|
||||
101121,
|
||||
102020002220,
|
||||
|
||||
100010200022,
|
||||
201120,
|
||||
111210,
|
||||
222110, //97
|
||||
|
||||
100010201022,
|
||||
221012,
|
||||
201220,
|
||||
102010002220,
|
||||
|
||||
101011,
|
||||
202210,
|
||||
101011,
|
||||
202110,
|
||||
101210,
|
||||
221011, //107
|
||||
|
||||
1,
|
||||
0,
|
||||
2,
|
||||
0,
|
||||
|
||||
111101,
|
||||
202120,
|
||||
101210,
|
||||
202120,
|
||||
330033,
|
||||
003300,
|
||||
440044,
|
||||
004400, //119
|
||||
#GOGOEND
|
||||
|
||||
009009,
|
||||
8,
|
||||
0,
|
||||
0,
|
||||
|
||||
0,
|
||||
0,
|
||||
0, //126
|
||||
#END
|
||||
|
||||
|
||||
COURSE:Normal
|
||||
LEVEL:6
|
||||
BALLOON:4,3,5
|
||||
SCOREINIT:590,3080
|
||||
SCOREDIFF:158
|
||||
|
||||
#START
|
||||
#MEASURE 3/4
|
||||
111,
|
||||
111,
|
||||
3,
|
||||
2,
|
||||
220200,
|
||||
|
||||
101110,
|
||||
120,
|
||||
011,
|
||||
022,
|
||||
101110,
|
||||
|
||||
120,
|
||||
011,
|
||||
222,
|
||||
111011,
|
||||
120, //15
|
||||
|
||||
100110,
|
||||
222,
|
||||
001101,
|
||||
122,
|
||||
|
||||
101,
|
||||
1,
|
||||
101,
|
||||
202,
|
||||
|
||||
111011,
|
||||
122,
|
||||
110011,
|
||||
001100,
|
||||
|
||||
101110,
|
||||
1,
|
||||
011,
|
||||
011, //31
|
||||
|
||||
78,
|
||||
1,
|
||||
011,
|
||||
222,
|
||||
111011,
|
||||
130,
|
||||
|
||||
100110,
|
||||
222,
|
||||
001101,
|
||||
122,
|
||||
|
||||
101,
|
||||
1,
|
||||
101,
|
||||
202, //45
|
||||
|
||||
150,
|
||||
000000000000000000000008000000000000,
|
||||
1,
|
||||
222,
|
||||
|
||||
101110,
|
||||
122,
|
||||
101110,
|
||||
122,
|
||||
|
||||
101110,
|
||||
222,
|
||||
101110,
|
||||
101110, //57
|
||||
|
||||
101101,
|
||||
#MEASURE 2/4
|
||||
11,
|
||||
#MEASURE 3/4
|
||||
202202,
|
||||
#MEASURE 2/4
|
||||
22,
|
||||
#MEASURE 3/4
|
||||
101101,
|
||||
#MEASURE 2/4
|
||||
11,
|
||||
#MEASURE 3/4
|
||||
222,
|
||||
78,//65
|
||||
|
||||
#GOGOSTART
|
||||
101110,
|
||||
111,
|
||||
111010,
|
||||
500000000000000008000000000000000000,
|
||||
|
||||
111,
|
||||
101110,
|
||||
100011,
|
||||
1,
|
||||
|
||||
101110,
|
||||
111,
|
||||
111010,
|
||||
500000000000000008000000000000000000,
|
||||
|
||||
101110,
|
||||
111,
|
||||
101110,
|
||||
111, //81
|
||||
|
||||
101110,
|
||||
102220,
|
||||
101110,
|
||||
102220,
|
||||
|
||||
101110,
|
||||
111,
|
||||
111010,
|
||||
500000000000000008000000000000000000,
|
||||
|
||||
111,
|
||||
101110,
|
||||
101011,
|
||||
1,
|
||||
|
||||
101110,
|
||||
111,
|
||||
111010,
|
||||
122, //97
|
||||
|
||||
101110,
|
||||
120,
|
||||
101110,
|
||||
120,
|
||||
|
||||
100011,
|
||||
122,
|
||||
100011,
|
||||
122,
|
||||
111,
|
||||
222, //107
|
||||
|
||||
1,
|
||||
0,
|
||||
2,
|
||||
0,
|
||||
|
||||
101100,
|
||||
022,
|
||||
101110,
|
||||
222,
|
||||
|
||||
330033,
|
||||
003300,
|
||||
330033,
|
||||
003300, //119
|
||||
#GOGOEND
|
||||
|
||||
009009,
|
||||
8,
|
||||
0,
|
||||
0,
|
||||
|
||||
0,
|
||||
0,
|
||||
0, //126
|
||||
#END
|
||||
|
||||
|
||||
COURSE:Easy
|
||||
LEVEL:4
|
||||
BALLOON:3,6,3,3,3,3,3,3,3,3
|
||||
SCOREINIT:670,6580
|
||||
SCOREDIFF:190
|
||||
|
||||
#START
|
||||
#MEASURE 3/4
|
||||
101,
|
||||
010,
|
||||
3,
|
||||
0,
|
||||
2,
|
||||
|
||||
110,
|
||||
1,
|
||||
011,
|
||||
010,
|
||||
110,
|
||||
|
||||
1,
|
||||
011,
|
||||
1,
|
||||
110,
|
||||
040, //15
|
||||
|
||||
101,
|
||||
1,
|
||||
020,
|
||||
2,
|
||||
|
||||
101,
|
||||
1,
|
||||
101,
|
||||
1,
|
||||
|
||||
110,
|
||||
0,
|
||||
303,
|
||||
030,
|
||||
|
||||
110,
|
||||
1,
|
||||
011,
|
||||
010, //31
|
||||
|
||||
708,
|
||||
1,
|
||||
011,
|
||||
1,
|
||||
110,
|
||||
040,
|
||||
|
||||
101,
|
||||
1,
|
||||
020,
|
||||
2,
|
||||
|
||||
101,
|
||||
1,
|
||||
101,
|
||||
1, //45
|
||||
|
||||
5,
|
||||
000000000000000008000000000000000000,
|
||||
1,
|
||||
2,
|
||||
|
||||
111,
|
||||
1,
|
||||
1,
|
||||
2,
|
||||
|
||||
500000000000000000000000000000000008,
|
||||
0,
|
||||
111,
|
||||
1, //57
|
||||
|
||||
1,
|
||||
#MEASURE 2/4
|
||||
11,
|
||||
#MEASURE 3/4
|
||||
1,
|
||||
#MEASURE 2/4
|
||||
22,
|
||||
|
||||
#MEASURE 3/4
|
||||
2,
|
||||
#MEASURE 2/4
|
||||
11,
|
||||
#MEASURE 3/4
|
||||
9009,
|
||||
080000000000000000000000000000000000, //65
|
||||
|
||||
#GOGOSTART
|
||||
11,
|
||||
708,
|
||||
110,
|
||||
50000000000000000800000000000000000000,
|
||||
|
||||
1,
|
||||
11,
|
||||
101,
|
||||
1,
|
||||
|
||||
11,
|
||||
708,
|
||||
110,
|
||||
50000000000000000800000000000000000000,
|
||||
|
||||
11,
|
||||
111,
|
||||
11,
|
||||
111, //81
|
||||
|
||||
101,
|
||||
020,
|
||||
101,
|
||||
020,
|
||||
|
||||
11,
|
||||
708,
|
||||
110,
|
||||
708,
|
||||
|
||||
12,
|
||||
11,
|
||||
101,
|
||||
1,
|
||||
|
||||
11,
|
||||
708,
|
||||
110,
|
||||
708, //97
|
||||
|
||||
11,
|
||||
708,
|
||||
22,
|
||||
2,
|
||||
|
||||
101,
|
||||
020,
|
||||
101,
|
||||
020,
|
||||
500000000000000000000000000000000008,
|
||||
0, //107
|
||||
|
||||
1,
|
||||
0,
|
||||
2,
|
||||
0,
|
||||
|
||||
110,
|
||||
1,
|
||||
022,
|
||||
010,
|
||||
|
||||
303,
|
||||
030,
|
||||
303,
|
||||
030, //119
|
||||
#GOGOEND
|
||||
|
||||
009009,
|
||||
8,
|
||||
0,
|
||||
0,
|
||||
|
||||
0,
|
||||
0,
|
||||
0, //126
|
||||
#END
|
||||
Reference in New Issue
Block a user