This commit is contained in:
2026-03-04 23:59:27 +09:00
parent 6e0312f5b4
commit 4b4e2b8c98
1128 changed files with 668765 additions and 0 deletions

506
tja/550.tja Normal file
View File

@@ -0,0 +1,506 @@
//TJADB Project
TITLE:KUSANAGI
TITLEJA:KUSANAGI
SUBTITLE:--aran
SUBTITLEJA:aran
BPM:180
WAVE:KUSANAGI.ogg
OFFSET:-1.491
DEMOSTART:86.810
//Shinuchi: 4020/2170/1680/1290
COURSE:Oni
LEVEL:9
BALLOON:
SCOREINIT:440,1350
SCOREDIFF:110
#START
10200120,
00200120,
10200120,
00200122,
10200120,
00200122,
1222,
220000220000220000300000, //8
1010201110102010,
1010201110201020,
1010201110102010,
1010201110201020,
1010201110102010,
1010201110201020,
1111111111111111,
0004, //16
3022102000102010,
1222102000202020,
1022102000102010,
1222102000102020,
12021212,
02121212,
1020102010221120,
1022112010104000, //24
3022102000102010,
1222102000202020,
1022102000102010,
1222102000102020,
12021212,
02121212,
1022102210221020,
200200200200101010101010100000100000400000000000, //32
30230203,
30230203,
30230203,
3000203022202020,
30230203,
30230203,
11121212,
1101103000100000, //40
1020102010211120,
1020102010210120,
1020102010221220,
1021112010221220,
1020102010221220,
1022122010221222,
1222222212222222,
100200200200200200200200202020202020200000000000, //48
1,
0,
0,
00000122,
2,
00000222,
1,
00000122, //56
1020112010201120,
1020112010201120,
1020100110201020,
1001102011021111,
12121212,
1020102110201021,
100000200000100000200200100000200000100000202020,
100222100220300000000000, //64
#GOGOSTART
3022112010221020,
000000202020100000200000100000200200100000200000,
1022112010221020,
100000202020100000200000100000200200100000200000,
1022112110221020,
000000202020100000200000100000200200100000200000,
100000202020100000200100100000202020100000200200,
100000200100000000100000202020100000202020100000, //72
3022112110221020,
200000202020100000200000100000200200100000200000,
100000202020200000200200200000202020200000200200,
1120201011204010,
1022112110221020,
200222100200100222100200,
100000202020100000200100100000202020100000200200,
100100200000200000100000101010200000400000400000, //80
1020002210202010,
0020002220201020,
1211202220201020,
0020002220201022,
1020102220201020,
0020002220201020,
1211221212112211,
100200100100200200100200202020202020100100100000,
#GOGOEND
3,
0, //90
#END
COURSE:Hard
LEVEL:7
BALLOON:
SCOREINIT:450,1760
SCOREDIFF:115
#START
1202,
00200022,
1202,
00200022,
1202,
00200022,
1222,
2223, //8
1010201010102011,
11211212,
1010201010102011,
11211212,
1010201110102011,
1010201110102010,
1110111011101110,
0004, //16
10210202,
1022201000202020,
10210222,
1022201000202020,
12021212,
02121202,
12121212,
1110201000104000, //24
10210202,
1022201000202020,
10210222,
1022201000202020,
12021212,
02121202,
12121212,
2220111010104000, //32
30230203,
30230203,
30230203,
3000203022200020,
30230203,
30230203,
11111212,
1101103000100000,
12021202,
1020002010201110,
12021202,
1020002010201110,
12020202,
12020202,
1020222010202220,
1020222022202000, //48
3,
0,
0,
00000122,
2,
00000222,
1,
00000122,
12021212,
12021212,
1010111010101110,
1001001010101110,
1010111010101110,
12121212,
1020102011101110,
500000000000000008000000300000000000000000000000, //64
#GOGOSTART
12021212,
0020202011101000,
12021212,
0020202011101020,
12021212,
0020202011101020,
1020222010202220,
1001001010202020, //72
12021212,
0020202011101000,
12022222,
0020202011104000,
12021212,
0020202011101020,
12021212,
12221222, //80
1020002220202020,
0020002220202020,
1022202220202020,
0020002220202020,
1020002220202020,
0020002220202020,
1110222011102220,
1110111011102000, //88
#GOGOEND
3,
0, //90
#END
COURSE:Normal
LEVEL:6
BALLOON:4,7,15,7
SCOREINIT:450,2450
SCOREDIFF:113
#START
0202,
00200022,
0202,
00200022,
00200022,
00200022,
0222,
2240, //8
1202,
10200022,
10200022,
10200022,
1212,
1212,
11111111,
0004, //16
10210022,
10210222,
10210222,
10210222,
12021012,
02101210,
12021212,
12121040, //24
10210022,
10210222,
10210222,
10210222,
12021012,
02101210,
12021212,
500000000000000000000008000000000000400000000000, //32
30030403,
30030403,
30030403,
300000000000000000600000000000000008000000000000,
30030403,
30030403,
33333333,
78, //40
12021202,
12021202,
12021202,
12021202,
12020222,
12020222,
12221222,
7008, //48
3,
0,
0,
00000220,
2,
00000220,
2,
00000220, //56
12021202,
12021202,
12121202,
1001001010200020,
12121212,
11111111,
7,
0008, //64
#GOGOSTART
12021212,
02221010,
12021212,
02221010,
12021212,
02221010,
12221212,
02223030, //72
12021212,
02221010,
12022222,
02223040,
12021212,
02221010,
12121212,
02223030, //80
12022202,
02022220,
12022202,
02022220,
12021212,
02021210,
12121212,
7008, //88
#GOGOEND
3,
0, //90
#END
COURSE:Easy
LEVEL:5
BALLOON:7,2,5,7,5,5,5
SCOREINIT:500,4970
SCOREDIFF:130
#START
0200,
0200,
0200,
0200,
0202,
0202,
0222,
2240, //8
1002,
1002,
1002,
1002,
11,
1111,
9009,
8, //16
1202,
1202,
1202,
1202,
1011,
0110,
1111,
600000000000000008000000000000000000400000000000, //24
1202,
1202,
1202,
1202,
1011,
0110,
1111,
600000000000000008000000000000000000400000000000, //32
30030400,
30030400,
30030400,
30070080,
30030400,
30030400,
3333,
600000000000000000000000000008000000000000000000, //40
1111,
1212,
1111,
1212,
3,
3,
33,
70000800, //48
3,
0,
0,
0,
4,
0,
4,
0, //56
11,
11,
1111,
500000000000000000000000000000000008000000000000,
1212,
1212,
9009,
8, //64
#GOGOSTART
1202,
1212,
1202,
1222,
1202,
1212,
33,
7008, //72
1202,
1212,
1202,
1224,
1202,
1212,
33,
7008, //80
1222,
0222,
1222,
0222,
1212,
1212,
500000000000000000000000000000000008000000000000,
7008,//88
#GOGOEND
3,
0, //90
#END