tja
This commit is contained in:
411
tja/551.tja
Normal file
411
tja/551.tja
Normal file
@@ -0,0 +1,411 @@
|
||||
//TJADB Project
|
||||
TITLE:Chouren ~Obsession~
|
||||
TITLEJA:蝶戀
|
||||
SUBTITLE:--ZZAN Shin-way
|
||||
SUBTITLEJA:~Obsession~
|
||||
BPM:116
|
||||
WAVE:Chouren Obsession.ogg
|
||||
OFFSET:-2.403
|
||||
DEMOSTART:4.461
|
||||
|
||||
//Shinuchi: 5020/3780/2570/2170/1760
|
||||
|
||||
COURSE:Edit
|
||||
LEVEL:8
|
||||
BALLOON:
|
||||
SCOREINIT:560,1800
|
||||
SCOREDIFF:148
|
||||
|
||||
#START
|
||||
#SCROLL 1.5
|
||||
2010201022221111,
|
||||
|
||||
#GOGOSTART
|
||||
100200200100202020100000000200100000101010200000,
|
||||
100200200100202020100000000200100000101010200000,
|
||||
1021202120212100,
|
||||
1021202120212100,
|
||||
|
||||
100200200100202020100000000200100000101010200000,
|
||||
100200200100202020100000000200100000101010200000,
|
||||
1021202120212100,
|
||||
100000201010200000201010200000201010200100000000,
|
||||
#GOGOEND
|
||||
500000000000000008000000100200000200000200100000, //10
|
||||
|
||||
3022202010102020,
|
||||
1210202010102220,
|
||||
11221221,
|
||||
200200000222200000200200100000100100200000100000,
|
||||
|
||||
3022202010102020,
|
||||
1012202010102000,
|
||||
11221221,
|
||||
100000100200200000100000100000100000200200202020, //18
|
||||
|
||||
100200000100200000100200000100200000222200000000,
|
||||
200100000200100000200100000200100000111100000000,
|
||||
3030002210102020,
|
||||
3030002210102000,
|
||||
|
||||
100200000100200000100200000100200000222200000000,
|
||||
200100000200100000200100000200100000111100000000,
|
||||
22112211,
|
||||
100100100100101010101010200200200200202020202020, //26
|
||||
|
||||
#GOGOSTART
|
||||
1010122210101222,
|
||||
1010222110102221,
|
||||
1211211202102110,
|
||||
1010202002102022,
|
||||
|
||||
1010211210102112,
|
||||
1010122110101221,
|
||||
1221122121212000,
|
||||
1122102010201222, //34
|
||||
#GOGOEND
|
||||
|
||||
1012201012201012,
|
||||
2010122010122010,
|
||||
3030110130301201,
|
||||
3030220130302100,
|
||||
2222122211121000, //39
|
||||
|
||||
#GOGOSTART
|
||||
100200200100202020100000000200100000101010200000,
|
||||
100200200100202020100000000200100000101010200000,
|
||||
1021202120212100,
|
||||
1021202120212100,
|
||||
|
||||
100200200100202020100000000200100000101010200000,
|
||||
100200200100202020100000000200100000101010200000,
|
||||
1021202120212100,
|
||||
100000201010200000201010200000201010200100000000, //47
|
||||
#GOGOEND
|
||||
|
||||
100000200100000200100000100000200100222200100100,
|
||||
500000000000000000000000000000000000000000000008,
|
||||
0,
|
||||
0,
|
||||
0, //52
|
||||
#END
|
||||
|
||||
|
||||
COURSE:Oni
|
||||
LEVEL:7
|
||||
BALLOON:
|
||||
SCOREINIT:650,2240
|
||||
SCOREDIFF:183
|
||||
|
||||
#START
|
||||
2010201022221110,
|
||||
|
||||
#GOGOSTART
|
||||
1010222002101120,
|
||||
1010222002101120,
|
||||
1010201020102100,
|
||||
1010201020102100,
|
||||
|
||||
1010222002101120,
|
||||
1010222002101120,
|
||||
1010201020102100,
|
||||
1010201020102100,
|
||||
#GOGOEND
|
||||
500000000000000008000000100200000200000200100000, //10
|
||||
|
||||
1022202010102020,
|
||||
1210202010102220,
|
||||
11221221,
|
||||
2102102100222020,
|
||||
|
||||
1022202010102020,
|
||||
1012202010002000,
|
||||
11220221,
|
||||
1022201010102010, //18
|
||||
|
||||
1102201102201200,
|
||||
2101202101202200,
|
||||
3030002210102020,
|
||||
3030002210102000,
|
||||
|
||||
1102201102201200,
|
||||
2101202101202200,
|
||||
2020101020202220,
|
||||
1111111122222220, //26
|
||||
|
||||
#GOGOSTART
|
||||
1010222010102220,
|
||||
1010122010101220,
|
||||
1010211202102000,
|
||||
1010202002102022,
|
||||
|
||||
1010222010102220,
|
||||
1010122010101220,
|
||||
1221122121212000,
|
||||
1222102010202222, //34
|
||||
#GOGOEND
|
||||
|
||||
11211211,
|
||||
21121121,
|
||||
3030110030301200,
|
||||
3030220030302100,
|
||||
2111211121112000, //39
|
||||
|
||||
#GOGOSTART
|
||||
1010222002101120,
|
||||
1010222002101120,
|
||||
1010201020102100,
|
||||
1010201020102100,
|
||||
|
||||
1010222002101120,
|
||||
1010222002101120,
|
||||
1010201020102100,
|
||||
1010201020102100, //47
|
||||
#GOGOEND
|
||||
|
||||
3003003030012211,
|
||||
500000000000000000000000000000000000000000000008,
|
||||
0,
|
||||
0,
|
||||
0, //52
|
||||
#END
|
||||
|
||||
|
||||
COURSE:Hard
|
||||
LEVEL:4
|
||||
BALLOON:20
|
||||
SCOREINIT:540,3510
|
||||
SCOREDIFF:163
|
||||
|
||||
#START
|
||||
21212210,
|
||||
|
||||
#GOGOSTART
|
||||
33440112,
|
||||
33440112,
|
||||
1010201020102100,
|
||||
1010201020102100,
|
||||
|
||||
33440112,
|
||||
33440112,
|
||||
1010201020102100,
|
||||
1010201020102100,
|
||||
#GOGOEND
|
||||
500000000000000000000000000000000000000008000000, //10
|
||||
|
||||
30201120,
|
||||
10201120,
|
||||
11221221,
|
||||
4004004000202020,
|
||||
|
||||
30201120,
|
||||
10201120,
|
||||
11220221,
|
||||
100000000000200000100000100000100000500008000000, //18
|
||||
|
||||
3003003003003000,
|
||||
4004004004004000,
|
||||
33001120,
|
||||
33001120,
|
||||
|
||||
3003003003003000,
|
||||
4004004004004000,
|
||||
22112220,
|
||||
500000000000000000000000000000000000000008000000, //26
|
||||
|
||||
#GOGOSTART
|
||||
33403340,
|
||||
34403440,
|
||||
11210120,
|
||||
11220120,
|
||||
|
||||
33403340,
|
||||
34403440,
|
||||
12122120,
|
||||
100000200000100000200000100000200000500008000000, //34
|
||||
#GOGOEND
|
||||
|
||||
10210210,
|
||||
21021020,
|
||||
33003300,
|
||||
33003300,
|
||||
500000000000000000000000000000000008000000000000, //39
|
||||
|
||||
#GOGOSTART
|
||||
33440112,
|
||||
33440112,
|
||||
1010201020102100,
|
||||
1010201020102100,
|
||||
|
||||
33440112,
|
||||
33440112,
|
||||
1010201020102100,
|
||||
1010201020102100, //47
|
||||
#GOGOEND
|
||||
|
||||
3003003030030030,
|
||||
9000000000000009,
|
||||
0800,
|
||||
0,
|
||||
0, //52
|
||||
#END
|
||||
|
||||
|
||||
COURSE:Normal
|
||||
LEVEL:4
|
||||
BALLOON:15
|
||||
SCOREINIT:640,5790
|
||||
SCOREDIFF:220
|
||||
|
||||
#START
|
||||
2222,
|
||||
|
||||
#GOGOSTART
|
||||
300000000000600000000008000000100000100000000000,
|
||||
300000000000600000000008000000100000100000000000,
|
||||
1222,
|
||||
1222,
|
||||
|
||||
300000000000600000000008000000100000100000000000,
|
||||
300000000000600000000008000000100000100000000000,
|
||||
1222,
|
||||
1222,
|
||||
#GOGOEND
|
||||
500000000000000000000000000000000008000000000000, //10
|
||||
|
||||
30001100,
|
||||
10001100,
|
||||
1212,
|
||||
300000000300000000600000000000000008000000000000,
|
||||
|
||||
30001100,
|
||||
10001100,
|
||||
1212,
|
||||
100000000000200000000000500000000008000000000000, //18
|
||||
|
||||
3003003003003000,
|
||||
4004004004004000,
|
||||
33001100,
|
||||
33001100,
|
||||
|
||||
3003003003003000,
|
||||
4004004004004000,
|
||||
1122,
|
||||
500000000000000000000000000000000008000000000000, //26
|
||||
|
||||
#GOGOSTART
|
||||
33303330,
|
||||
33303330,
|
||||
3404,
|
||||
1202,
|
||||
|
||||
33303330,
|
||||
33303330,
|
||||
3340,
|
||||
100000000000100000000000500000000008000000000000, //34
|
||||
#GOGOEND
|
||||
|
||||
30030030,
|
||||
40040040,
|
||||
33003300,
|
||||
33003300,
|
||||
500000000000000000000000000000000008000000000000, //39
|
||||
|
||||
#GOGOSTART
|
||||
300000000000600000000008000000100000100000000000,
|
||||
300000000000600000000008000000100000100000000000,
|
||||
1222,
|
||||
1222,
|
||||
|
||||
300000000000600000000008000000100000100000000000,
|
||||
300000000000600000000008000000100000100000000000,
|
||||
1222,
|
||||
1222, //47
|
||||
#GOGOEND
|
||||
|
||||
3003003030030030,
|
||||
9000000000000009,
|
||||
0800,
|
||||
0,
|
||||
0, //52
|
||||
#END
|
||||
|
||||
|
||||
COURSE:Easy
|
||||
LEVEL:3
|
||||
BALLOON:15
|
||||
SCOREINIT:520,8090
|
||||
SCOREDIFF:248
|
||||
|
||||
#START
|
||||
2222,
|
||||
|
||||
#GOGOSTART
|
||||
3304,
|
||||
3304,
|
||||
1110,
|
||||
1110,
|
||||
|
||||
3304,
|
||||
3304,
|
||||
1110,
|
||||
1110,
|
||||
#GOGOEND
|
||||
500000000000000000000000000008000000000000000000, //10
|
||||
|
||||
31,
|
||||
1102,
|
||||
11,
|
||||
3003003000000000,
|
||||
|
||||
31,
|
||||
1102,
|
||||
11,
|
||||
500000000000000000000000000008000000000000000000, //18
|
||||
|
||||
3003003003000000,
|
||||
3003003003000000,
|
||||
3,
|
||||
3,
|
||||
|
||||
3003003003000000,
|
||||
3003003003000000,
|
||||
1111,
|
||||
500000000000000000000000000008000000000000000000, //26
|
||||
|
||||
#GOGOSTART
|
||||
33,
|
||||
33,
|
||||
3303,
|
||||
1110,
|
||||
|
||||
33,
|
||||
33,
|
||||
3303,
|
||||
1110, //34
|
||||
#GOGOEND
|
||||
|
||||
3003,
|
||||
3003,
|
||||
33,
|
||||
33,
|
||||
500000000000000000000000000008000000000000000000, //39
|
||||
|
||||
#GOGOSTART
|
||||
3304,
|
||||
3304,
|
||||
1110,
|
||||
1110,
|
||||
|
||||
3304,
|
||||
3304,
|
||||
1110,
|
||||
1110, //47
|
||||
#GOGOEND
|
||||
|
||||
3003000030030000,
|
||||
9000000000000009,
|
||||
0800,
|
||||
0,
|
||||
0, //52
|
||||
#END
|
||||
Reference in New Issue
Block a user