This commit is contained in:
2026-03-04 23:59:27 +09:00
parent 6e0312f5b4
commit 4b4e2b8c98
1128 changed files with 668765 additions and 0 deletions

745
tja/553.tja Normal file
View File

@@ -0,0 +1,745 @@
//TJADB Project
TITLE:BLAZING VORTEX
TITLEJA:BLAZING VORTEX
SUBTITLE:--George Nishigome/Critical Velocity
SUBTITLEJA:「クリティカルベロシティ」より
BPM:173
WAVE:BLAZING VORTEX.ogg
OFFSET:-1.868
DEMOSTART:12.959
//Shinuchi: 3310/2350/1380/1200/830
COURSE:Edit
LEVEL:10
BALLOON:
SCOREINIT:310,830
SCOREDIFF:70
#START
30210120,
10210120,
1000201012102010,
1210201012102222,
1000201012102000,
1000201012102000,
1000201012102010,
1210201012102000, //8
40210222,
2020202022100020,
1000201000212021,
2021202122100020,
10210222,
2020202022100000,
1001001020020020,
1001001020221000, //16
40210222,
2020202022100020,
1000201000212021,
2021202122100020,
10210222,
2020202022100000,
1001001020020020,
1001001020221111, //24
2011201012102122,
1011201012101212,
1122102212102120,
2211202210102212,
1011201012102120,
2211201120202212,
1020002210211011,
1010002022112111, //32
2011201012101212,
1011201012101212,
1122102212102120,
2211202210102212,
1122102211201220,
2211201120202212,
1020002210111022,
2020000022112111, //40
200000100000111200100000,
1110201121112111,
2111211121112000,
1111201022112010,
2010100101001022,
100000200100200100200200101010202020101010101010,
100000000000101020202020202020202020100000200100,
200000200100200000200100200000202020202020100000, //48
#GOGOSTART
4000221122112211,
2211221122112211,
2111211121112111,
2111211121112111,
2212221122122211,
201010202010100200200100200200100100100000000000,
111222211100111222100011,
111222200222111222100000, //56
#GOGOEND
3000201000101122,
1122112211221122,
1200000021112012,
0000200010202210,
200000400000002200000200,
02112021,
02020101,
1110201010201110, //64
40210211,
0000002010201111,
100000000000100020002000100200200200100200200100,
2212212210002022,
1202010201022111,
2020211211102002,
100000000000200100200100202020200000100000101010,
200100000100202020202020202020202020202020100000, //72
1110202112112220,
1110202212102212,
1022102212021220,
1011201212202212,
1011202112112220,
1110202212102212,
1022102212021220,
100000100100200000100200100200200000202020100000, //80
#GOGOSTART
101010202020200000200100100200100100200200200200,
1211212212112222,
1111221112112222,
1211212212112222,
1111221112112222,
1211212212112222,
1111221112112222,
1211212212112222, //88
1111221112112222,
1211212212112222,
1111221112112222,
1211212212112222,
1111221112112222,
1211212212112222,
1111221112112220,
2222111122221000, //96
#GOGOEND
2011201012102122,
1011201012101212,
1122102212102120,
2211201120202212,
1011201012102120,
2211201120202212,
1020002210211011,
1010002022112111, //104
2,
0,
0, //107
#END
COURSE:Oni
LEVEL:7
BALLOON:6,18
SCOREINIT:390,1250
SCOREDIFF:90
#START
3,
10210120,
10210120,
10210120,
1000201011102000,
1000201011102000,
1000201011102000,
1020002220100000,
40000222,
2020202011100020,
10110222,
2020202022200020,
10110222,
2020202011100000,
1001001020020020,
1001001020111000, //16
40000222,
2020202011100020,
10110222,
2020202022200020,
10110222,
2020202011100000,
1001001020020020,
1001001020111000,
1011101011101000,
1011101011101000,
1011101011101000,
1011101030300000,
2022202022202000,
2022202040400000,
1010002220222011,
1010002022202222, //32
2000000011101000,
1011101011101000,
1011101011101000,
1011101030300000,
2022202022202000,
2022202040400000,
1010002220222022,
2020000022202222,
25,
000000000008000000000000100000100100100000100100,
1011101110115000,
000000000000000000000000000000000008000000000000,
2010100101001000,
100000000000100000100000500000000000000000000008,
0708,
2022202220222000, //48
#GOGOSTART
4000222022202220,
2220222022202220,
1110111011101110,
1110111011101110,
2220111022201110,
2220111011101000,
1120100012201000,
500000000000000000000000000000000008000000000000, //56
#GOGOEND
3000000000001110,
1110111011101110,
1100000022222022,
0000000020202220,
20400202,
01111021,
02020101,
00011220,
40000211,
0000002010201111,
1000111022201110,
2220111110000000,
1202020102022111,
1020222211100000,
1700,
0008, //72
1000202010102220,
1000101020202220,
1000202010102220,
1000101022202000,
1000202010102220,
1000101020202220,
1000202010102220,
1000101022202000, //80
#GOGOSTART
1110202011102000,
1110101011102000,
1110202011102000,
1110101011102000,
1110222011102000,
1110111011102000,
1110222011102000,
1110111011102000,
1110222011102220,
1110111011102220,
1110222011102220,
1110111011102220,
1111222011112220,
1111111111112220,
1111222011112220,
2220111022202000, //96
#GOGOEND
3000000011101000,
1011101011101000,
1011101011101000,
1011101030300000,
2022202022202000,
2022202040400000,
1010002220222011,
1010002022202222,
2,
0,
0, //107
#END
COURSE:Hard
LEVEL:7
BALLOON:5,15
SCOREINIT:360,1440
SCOREDIFF:90
#START
3,
10110110,
10110110,
10110110,
10210120,
10210120,
10210120,
12010100,
40000222,
2020202011100020,
10110222,
2020202022200020,
10110222,
2020202011100000,
1001001020020020,
1001001020001000, //16
40000222,
2020202011100020,
10110222,
2020202022200020,
10110222,
2020202011100000,
1001001020020020,
1001001020001000,
1000101011101000,
1000101011101000,
1000101011101000,
10113300,
2000202022202000,
20224400,
11020202,
0010002022202022, //32
2000000011101000,
1000101011101000,
1000101011101000,
10113300,
2000202022202000,
20224400,
11020201,
0020000022202022,
25,
000000000008000000000000100000100100100000000000,
1011100010115000,
000000000000000000000000000000000008000000000000,
1010100101001000,
100000000000100000100000500000000000000000000008,
0708,
2022200020222000, //48
#GOGOSTART
4000222020002220,
2000222020002220,
1000111010001110,
1000111010001110,
1000222020002220,
1110111011101000,
2220200011101000,
500000000000000000000000000000000008000000000000, //56
#GOGOEND
3000000000001110,
1110111011101110,
1000000022222022,
0000000020202220,
20400202,
01111011,
02020101,
00011220,
40000111,
0000001010101111,
1000111011101110,
1110101110002000,
2202020202022000,
1010111011100000,
1700,
0008, //72
1000202010002220,
1000202020002220,
1011101110002220,
1000222010002000,
1000202010002220,
1000202020002220,
1011101110002220,
1000222010002000, //80
#GOGOSTART
1000202011102220,
1110101011102220,
1000202011102220,
1110101011102000,
1000202011102220,
1110101011102220,
1000202011102220,
1110101011102000,
1110222011102220,
1110111011102220,
1110222011102220,
1110111011102000,
1110222011102220,
1110111011102220,
1110222011102220,
2220222022202000, //96
#GOGOEND
1000101011101000,
1000101011101000,
1000101011101000,
10113300,
2000202022202000,
20224400,
11020202,
0010002022202022,
2,
0,
0, //107
#END
COURSE:Normal
LEVEL:6
BALLOON:4,4,12,4
SCOREINIT:500,2550
SCOREDIFF:128
#START
30110110,
10110110,
10220220,
10220220,
10110110,
10110110,
10220220,
500000000000000000000000000000000008000000000000,
40000220,
22022002,
00000222,
20222202,
00000220,
22022000,
1001001010000000,
1001001010000000, //16
40000220,
22022002,
00000222,
20222202,
00000220,
22022000,
1001001010000000,
1001001010000000,
10110110,
10110110,
10110110,
10103300,
20220220,
20204400,
11010101,
01017000, //32
80000110,
10110110,
10110110,
10102200,
20220220,
20202200,
11010101,
01003000,
45,
000000000008000000000000100000000000200000000000,
1215,
000000000000000000000000000000000008000000000000,
1122,
100000000000100000000000500000000000000000000008,
0708,
2211, //48
#GOGOSTART
4111,
1111,
2222,
2222,
1111,
22201110,
34,
600000000000000000000000000000000008000000000000, //56
#GOGOEND
30000011,
10111011,
10002022,
00001110,
20400202,
02202022,
01010101,
00010220,
40000111,
00011110,
1500,
000000000000000000000000000000000008000000000000,
10220220,
10220200,
1700,
08, //72
10111020,
1212,
10111020,
1210,
10111020,
1212,
10111020,
1210, //80
#GOGOSTART
3,
10101110,
1111,
11101000,
1111,
10101110,
1111,
11101000,
1212,
11102020,
1212,
11101000,
1212,
11102020,
1212,
500000000000000000000000000000000008000000000000, //96
#GOGOEND
10110110,
10110110,
10110110,
10103300,
20220220,
20204400,
11010101,
01017000,
8,
0,
0, //107
#END
COURSE:Easy
LEVEL:5
BALLOON:3,3,10,3
SCOREINIT:410,3620
SCOREDIFF:105
#START
30000110,
1110,
10110010,
2220,
10110010,
1110,
10110010,
500000000000000000000000000008000000000000000000,
40000220,
20202002,
00000220,
20202002,
00000220,
2220,
10011000,
10011000, //16
40000220,
20202002,
00000220,
20202002,
00000220,
2220,
10011000,
10011000,
11,
1011,
1011,
13,
2220,
24,
11,
1170, //32
81,
1011,
1011,
13,
2220,
24,
11,
1,
45,
000008000000000000000000100000000000100000000000,
1115,
000000000000000000000000000008000000000000000000,
1110,
100000000000100000000000500000000000000000000008,
0708,
2222, //48
#GOGOSTART
41,
1111,
22,
2222,
1011,
11,
34,
600000000000000000000000000008000000000000000000, //56
#GOGOEND
3001,
1111,
10002022,
0011,
20400202,
00002001,
00010101,
0,
40000101,
00011010,
1500,
000000000000000000000000000008000000000000000000,
10100220,
1110,
1700,
0008,
1102,
1202,
1102,
1210,
1102,
1202,
1102,
1210, //80
#GOGOSTART
3,
1111,
1111,
1110,
1111,
1111,
1111,
1110,
1122,
1122,
1122,
1110,
1122,
1122,
1122,
500000000000000000000000000008000000000000000000, //96
#GOGOEND
11,
1011,
1011,
13,
2220,
24,
11,
1170,
8,
0,
0, //107
#END