tja
This commit is contained in:
449
tja/559.tja
Normal file
449
tja/559.tja
Normal file
@@ -0,0 +1,449 @@
|
||||
//TJADB Project
|
||||
TITLE:Tooriyo
|
||||
TITLEJA:トオリヨ
|
||||
SUBTITLE:--Tezuka feat. Kagamine Rin & Kagamine Len
|
||||
SUBTITLEJA:テヅカ
|
||||
BPM:184
|
||||
WAVE:Tooriyo.ogg
|
||||
OFFSET:-1.501
|
||||
DEMOSTART:64.748
|
||||
|
||||
COURSE:Oni
|
||||
LEVEL:8
|
||||
BALLOON:4,4
|
||||
SCOREINIT:460
|
||||
SCOREDIFF:110
|
||||
|
||||
|
||||
#START
|
||||
|
||||
|
||||
0034,
|
||||
|
||||
#GOGOSTART
|
||||
10201022,
|
||||
10201122,
|
||||
1001102010102020,
|
||||
1000200010201022,
|
||||
1000200010102022,
|
||||
1000200010102022,
|
||||
12021202,
|
||||
1000200011112022,
|
||||
|
||||
#GOGOEND
|
||||
1022202010012020,
|
||||
1010201122102020,
|
||||
1022202010012020,
|
||||
1010201122102020,
|
||||
1000200210200010,
|
||||
0010202010002022,
|
||||
1000200210102020,
|
||||
1000000011222000,
|
||||
1000200210102010,
|
||||
02021120,
|
||||
1000200220102010,
|
||||
02023040,
|
||||
1000200210102010,
|
||||
0020002010102011,
|
||||
1000201110002011,
|
||||
1010201120102022,
|
||||
1010202210102010,
|
||||
01221212,
|
||||
1010202210102022,
|
||||
1000001020002022,
|
||||
1010201110102022,
|
||||
1010201110102000,
|
||||
500000000000000000000008000000000000200000000000,
|
||||
1020101120002000,
|
||||
10210120,
|
||||
0000200020112000,
|
||||
10210120,
|
||||
0000200011112000,
|
||||
10210120,
|
||||
0000200020112000,
|
||||
10210120,
|
||||
0000200011112000,
|
||||
2002202000002000,
|
||||
0000200000202220,
|
||||
2002202000002000,
|
||||
0000200020112000,
|
||||
1020112010201122,
|
||||
1020112010112010,
|
||||
0010200011102000,
|
||||
7834,
|
||||
|
||||
#GOGOSTART
|
||||
1011202010221020,
|
||||
1011202010221020,
|
||||
1022102010221020,
|
||||
100000200200100000200000500000000008000000000000,
|
||||
1010202210201120,
|
||||
1010202210201120,
|
||||
1022202010222020,
|
||||
1022102010012000,
|
||||
1010202210102010,
|
||||
0012102010201120,
|
||||
1001102011200010,
|
||||
0010202210201020,
|
||||
1000002020007000,
|
||||
8000200220002020,
|
||||
1001201020002002,
|
||||
2010201020002022,
|
||||
1000202210102022,
|
||||
1010202210112000,
|
||||
|
||||
#GOGOEND
|
||||
1000200210102022,
|
||||
1120202010002020,
|
||||
1000200210102010,
|
||||
1120202210102000,
|
||||
1000200210102022,
|
||||
1120202010012020,
|
||||
1000201120102210,
|
||||
0010200010112020,
|
||||
1001200210102022,
|
||||
1120202210002020,
|
||||
1000200210102010,
|
||||
1120202210102000,
|
||||
1000200210102022,
|
||||
1120202210002020,
|
||||
1000201120102120,
|
||||
0010200010012020,
|
||||
1000200220102020,
|
||||
1220202010002020,
|
||||
1000200220102020,
|
||||
1220202010201000,
|
||||
1000200220102020,
|
||||
1220202010002020,
|
||||
100000000000200000100100100000000000202020100000,
|
||||
0010200010012040,
|
||||
|
||||
|
||||
#END
|
||||
|
||||
|
||||
COURSE:Hard
|
||||
LEVEL:6
|
||||
BALLOON:3,3,3
|
||||
SCOREINIT:530
|
||||
SCOREDIFF:120
|
||||
|
||||
|
||||
#START
|
||||
|
||||
|
||||
0034,
|
||||
|
||||
#GOGOSTART
|
||||
10201022,
|
||||
10201022,
|
||||
10201120,
|
||||
1120,
|
||||
10201022,
|
||||
10201022,
|
||||
1202,
|
||||
3434,
|
||||
|
||||
#GOGOEND
|
||||
30201120,
|
||||
1000200011102000,
|
||||
10201120,
|
||||
1000200011102000,
|
||||
10201201,
|
||||
0010202010002022,
|
||||
20201122,
|
||||
1078,
|
||||
10201121,
|
||||
0020200010101011,
|
||||
10201102,
|
||||
0034,
|
||||
10201121,
|
||||
0020200010101011,
|
||||
1000201110002011,
|
||||
1212,
|
||||
10201121,
|
||||
01201122,
|
||||
10201121,
|
||||
500000000000000008000000100000000000200000000000,
|
||||
10012020,
|
||||
10012020,
|
||||
500000000000000000000008000000000000200000000000,
|
||||
11221020,
|
||||
10020010,
|
||||
0120,
|
||||
10020020,
|
||||
0012,
|
||||
10020010,
|
||||
0122,
|
||||
10020010,
|
||||
0212,
|
||||
20020020,
|
||||
0202,
|
||||
20020020,
|
||||
00202120,
|
||||
1010200011102010,
|
||||
0010200011102010,
|
||||
0010200011102000,
|
||||
7834,//49
|
||||
|
||||
#GOGOSTART
|
||||
1110200010102000,
|
||||
1110200010102000,
|
||||
10201120,
|
||||
100000000000200000000000500000000008000000000000,
|
||||
1110200010102000,
|
||||
1110200010102000,
|
||||
10221202,
|
||||
1212,
|
||||
10201122,
|
||||
02201212,
|
||||
10221202,
|
||||
01201212,
|
||||
10022070,
|
||||
80202012,
|
||||
10012020,
|
||||
12121022,
|
||||
10012022,
|
||||
12121020,//67
|
||||
|
||||
#GOGOEND
|
||||
10201120,
|
||||
1110202010002000,
|
||||
10201120,
|
||||
1110202010201000,
|
||||
10201120,
|
||||
1110202010002000,
|
||||
1000200010002220,
|
||||
01203040,
|
||||
10401120,
|
||||
1110202010002020,
|
||||
10201120,
|
||||
1110202010201000,
|
||||
10201120,
|
||||
1110202010002020,
|
||||
1000200010002220,
|
||||
01201022,
|
||||
10201220,
|
||||
12212020,
|
||||
10201220,
|
||||
12212020,
|
||||
10201220,
|
||||
12212020,
|
||||
1000202220002020,
|
||||
02202044,
|
||||
,
|
||||
#END
|
||||
|
||||
COURSE:Normal
|
||||
LEVEL:5
|
||||
BALLOON:6,6
|
||||
|
||||
#START
|
||||
,//1
|
||||
|
||||
#GOGOSTART
|
||||
1100,
|
||||
1100,
|
||||
11,
|
||||
2220,
|
||||
1100,
|
||||
1100,
|
||||
12,
|
||||
3334,//9
|
||||
|
||||
#GOGOEND
|
||||
31,
|
||||
1120,
|
||||
11,
|
||||
1120,
|
||||
11,
|
||||
1110,
|
||||
11,
|
||||
1,
|
||||
10100002,
|
||||
02000000,
|
||||
10100002,
|
||||
02000000,
|
||||
10100002,
|
||||
02000000,
|
||||
11,
|
||||
7008,
|
||||
1202,
|
||||
0211,
|
||||
1202,
|
||||
0211,
|
||||
1011,
|
||||
2022,
|
||||
500000000000000000000008000000000000000000000000,
|
||||
7008,
|
||||
10010010,
|
||||
0220,
|
||||
10010010,
|
||||
0022,
|
||||
10010010,
|
||||
0220,
|
||||
10010010,
|
||||
0022,
|
||||
20020020,
|
||||
0202,
|
||||
20020020,
|
||||
0222,
|
||||
11,
|
||||
10101005,
|
||||
000000000000000000000000000000000008000000000000,
|
||||
3,//49
|
||||
|
||||
#GOGOSTART
|
||||
10101011,
|
||||
10101011,
|
||||
1212,
|
||||
1110,
|
||||
10101011,
|
||||
10101011,
|
||||
1212,
|
||||
1122,
|
||||
1110,
|
||||
1110,
|
||||
1210,
|
||||
1212,
|
||||
10030040,
|
||||
0110,
|
||||
11,
|
||||
1112,
|
||||
1022,
|
||||
3334,//67
|
||||
|
||||
#GOGOEND
|
||||
3110,
|
||||
1120,
|
||||
1110,
|
||||
10102220,
|
||||
1110,
|
||||
1120,
|
||||
1110,
|
||||
1144,
|
||||
0312,
|
||||
1110,
|
||||
1112,
|
||||
10102220,
|
||||
1110,
|
||||
1112,
|
||||
10101022,
|
||||
02201020,
|
||||
1202,
|
||||
0202,
|
||||
1202,
|
||||
0202,
|
||||
1202,
|
||||
0202,
|
||||
10201022,
|
||||
02202044,
|
||||
,
|
||||
#END
|
||||
|
||||
COURSE:Easy
|
||||
LEVEL:3
|
||||
BALLOON:4,4
|
||||
|
||||
#START
|
||||
,//1
|
||||
|
||||
#GOGOSTART
|
||||
1,
|
||||
1,
|
||||
11,
|
||||
2220,
|
||||
1,
|
||||
1,
|
||||
11,
|
||||
3333,//9
|
||||
|
||||
#GOGOEND
|
||||
31,
|
||||
12,
|
||||
11,
|
||||
12,
|
||||
11,
|
||||
1110,
|
||||
11,
|
||||
1,
|
||||
10100002,
|
||||
,
|
||||
10100002,
|
||||
,
|
||||
10100002,
|
||||
,
|
||||
11,
|
||||
7008,
|
||||
11,
|
||||
2,
|
||||
11,
|
||||
2,
|
||||
11,
|
||||
11,
|
||||
58,
|
||||
7008,
|
||||
1001,
|
||||
,
|
||||
1001,
|
||||
,
|
||||
1001,
|
||||
,
|
||||
1001,
|
||||
,
|
||||
20020020,
|
||||
,
|
||||
20020020,
|
||||
,
|
||||
1110,
|
||||
10101005,
|
||||
0008,
|
||||
3,//49
|
||||
|
||||
#GOGOSTART
|
||||
11,
|
||||
1110,
|
||||
11,
|
||||
2220,
|
||||
11,
|
||||
1110,
|
||||
11,
|
||||
2220,
|
||||
1100,
|
||||
2200,
|
||||
12,
|
||||
1110,
|
||||
1014,
|
||||
0110,
|
||||
11,
|
||||
1110,
|
||||
11,
|
||||
3333,//67
|
||||
|
||||
#GOGOEND
|
||||
31,
|
||||
1110,
|
||||
11,
|
||||
2220,
|
||||
12,
|
||||
1110,
|
||||
12,
|
||||
1122,
|
||||
31,
|
||||
1110,
|
||||
11,
|
||||
2220,
|
||||
12,
|
||||
1110,
|
||||
12,
|
||||
1112,
|
||||
1100,
|
||||
,
|
||||
1100,
|
||||
,
|
||||
1100,
|
||||
,
|
||||
1100,
|
||||
00002022,
|
||||
,
|
||||
#END
|
||||
Reference in New Issue
Block a user