tja
This commit is contained in:
734
tja/569.tja
Normal file
734
tja/569.tja
Normal file
@@ -0,0 +1,734 @@
|
||||
//TJADB Project
|
||||
TITLE:My Muscle Heart
|
||||
TITLEJA:My Muscle Heart
|
||||
SUBTITLE:--Yuuya Kobayashi (IOSYS) feat. Momiji Yamamoto (monotone)
|
||||
SUBTITLEJA:~テレビ高天原系アニメ「筋肉魔法少女タケミナカタ」主題歌~ コバヤシユウヤ(IOSYS) feat.山本椛 (monotone)
|
||||
BPM:195
|
||||
WAVE:My Muscle Heart.ogg
|
||||
OFFSET:-2.712
|
||||
DEMOSTART:58.837
|
||||
|
||||
//shinuchi: 4230/3020/1800/1110
|
||||
|
||||
COURSE:Oni
|
||||
LEVEL:9
|
||||
BALLOON:5,5,5,5,6
|
||||
SCOREINIT:360,1190
|
||||
SCOREDIFF:85
|
||||
|
||||
#START
|
||||
#GOGOSTART
|
||||
2010102210102010,
|
||||
2010102022102010,
|
||||
1020201220201020,
|
||||
1022101020122210,
|
||||
|
||||
2010102210102010,
|
||||
2010102022102010,
|
||||
1020201220201020,
|
||||
1022101040404040, //8
|
||||
#GOGOEND
|
||||
|
||||
00022000,
|
||||
00022000,
|
||||
00022000,
|
||||
00022200,
|
||||
|
||||
00022000,
|
||||
00011105,
|
||||
000000000000000000000000000000000008000000000000,
|
||||
3030222030302022, //16
|
||||
|
||||
1020101110102010,
|
||||
1020101110100020,
|
||||
1020101110102010,
|
||||
1020101110102000,
|
||||
|
||||
1011201000102010,
|
||||
1011202000201010,
|
||||
2211221122112211,
|
||||
#BPMCHANGE 193.66
|
||||
0
|
||||
#BPMCHANGE 171.2
|
||||
0
|
||||
#BPMCHANGE 157.8
|
||||
0
|
||||
#BPMCHANGE 141.34
|
||||
0,
|
||||
|
||||
#BPMCHANGE 140
|
||||
700000000000000008000000700000000000000008000000,
|
||||
700000000000000008000000700000000000000008000000, //26
|
||||
|
||||
#GOGOSTART
|
||||
21210121,
|
||||
02123430,
|
||||
11210212,
|
||||
0010201022221111,
|
||||
|
||||
21210121,
|
||||
222111222111222111222100,
|
||||
3000003000300400,
|
||||
#GOGOEND
|
||||
#BPMCHANGE 195
|
||||
#SCROLL 0.72
|
||||
30000000
|
||||
#SCROLL 1
|
||||
22222222, //34
|
||||
|
||||
10201120,
|
||||
1010201020112000,
|
||||
20201120,
|
||||
1010201020221000,
|
||||
|
||||
1000200010102012,
|
||||
2010201122112011,
|
||||
21111111,
|
||||
7000000080000011, //42
|
||||
|
||||
#GOGOSTART
|
||||
1010201210102011,
|
||||
1010201210102011,
|
||||
1010202210102011,
|
||||
1010202210102211,
|
||||
|
||||
1010201212102011,
|
||||
1010201212102011,
|
||||
2010201120102011,
|
||||
2210201122112211, //50
|
||||
|
||||
2000200211202010,
|
||||
2000200211202010,
|
||||
2000200211202010,
|
||||
0010202111202000,
|
||||
|
||||
2011201020112030,
|
||||
0010201222102000,
|
||||
12212212,
|
||||
2010202010221220,
|
||||
11111113,
|
||||
0004, //60
|
||||
|
||||
#MEASURE 5/4
|
||||
10002002121020002000,
|
||||
#MEASURE 4/4
|
||||
1000200212102010,
|
||||
#MEASURE 3/4
|
||||
201020102220,
|
||||
|
||||
#MEASURE 5/4
|
||||
10002002121020002000,
|
||||
#MEASURE 4/4
|
||||
1000200212101020,
|
||||
#MEASURE 3/4
|
||||
201020102220, //66
|
||||
|
||||
#MEASURE 5/4
|
||||
10002002121020002000,
|
||||
#MEASURE 4/4
|
||||
1000200212102010,
|
||||
#MEASURE 3/4
|
||||
500000000000000000000000000008000000,
|
||||
|
||||
#MEASURE 4/4
|
||||
3022203022203022,
|
||||
2030222030122211, //71
|
||||
#GOGOEND
|
||||
|
||||
1202,
|
||||
0202,
|
||||
1202,
|
||||
00200021,
|
||||
|
||||
10112021,
|
||||
10110303,
|
||||
0020001022102010,
|
||||
0012201022221111, //79
|
||||
|
||||
#GOGOSTART
|
||||
1010201210102011,
|
||||
1010201210102011,
|
||||
1010202210102011,
|
||||
1010202210102211,
|
||||
|
||||
1010201212102011,
|
||||
1010201212102011,
|
||||
2010201120102011,
|
||||
2210201122112211, //87
|
||||
|
||||
2000200211202010,
|
||||
2000200211202010,
|
||||
2000200211202010,
|
||||
0010202111202000,
|
||||
|
||||
2011201020112030,
|
||||
0010201222102000,
|
||||
1022201022201022,
|
||||
2010222010221220,
|
||||
11111113,
|
||||
#GOGOEND
|
||||
0000000000112000, //97
|
||||
|
||||
#GOGOSTART
|
||||
2010102210102010,
|
||||
2010102022102010,
|
||||
1020201220201020,
|
||||
1022101020122000,
|
||||
|
||||
2010102210102010,
|
||||
2010102022102010,
|
||||
1020201220201020,
|
||||
1022101021212211, //105
|
||||
#GOGOEND
|
||||
|
||||
500000000000000000000000000000000008000000000000,
|
||||
33330336,
|
||||
0,
|
||||
0,
|
||||
000008000000000000000000000000000000000000000000,
|
||||
#BARLINEOFF
|
||||
0, //111
|
||||
#END
|
||||
|
||||
|
||||
COURSE:Hard
|
||||
LEVEL:5
|
||||
BALLOON:4,4,4,4,5,12
|
||||
SCOREINIT:400,2040
|
||||
SCOREDIFF:100
|
||||
|
||||
#START
|
||||
#GOGOSTART
|
||||
21121121,
|
||||
12112120,
|
||||
12212212,
|
||||
21212020,
|
||||
|
||||
21121121,
|
||||
12112120,
|
||||
12212212,
|
||||
21214444, //8
|
||||
#GOGOEND
|
||||
|
||||
00022000,
|
||||
00022000,
|
||||
00022000,
|
||||
00022200,
|
||||
|
||||
00022000,
|
||||
00011105,
|
||||
000000000000000000000000000000000008000000000000,
|
||||
33003300, //16
|
||||
|
||||
10111010,
|
||||
10111010,
|
||||
10222020,
|
||||
10222020,
|
||||
|
||||
10112022,
|
||||
10112022,
|
||||
11111111,
|
||||
#BPMCHANGE 193.66
|
||||
0
|
||||
#BPMCHANGE 171.2
|
||||
0
|
||||
#BPMCHANGE 157.8
|
||||
0
|
||||
#BPMCHANGE 141.34
|
||||
0,
|
||||
|
||||
#BPMCHANGE 140
|
||||
700000000000000008000000700000000000000008000000,
|
||||
700000000000000008000000700000000000000008000000, //26
|
||||
|
||||
#GOGOSTART
|
||||
10101120,
|
||||
10103330,
|
||||
30101012,
|
||||
1144,
|
||||
|
||||
40201120,
|
||||
11113330,
|
||||
3000003000300300,
|
||||
#GOGOEND
|
||||
#BPMCHANGE 195
|
||||
#SCROLL 0.72
|
||||
3
|
||||
#SCROLL 1
|
||||
0, //34
|
||||
|
||||
10201120,
|
||||
10201120,
|
||||
10201220,
|
||||
10201220,
|
||||
|
||||
10201122,
|
||||
11201122,
|
||||
11111111,
|
||||
70008001, //42
|
||||
|
||||
#GOGOSTART
|
||||
10112021,
|
||||
10110101,
|
||||
10201120,
|
||||
11211001,
|
||||
|
||||
10112021,
|
||||
10110101,
|
||||
10202021,
|
||||
21212021, //50
|
||||
|
||||
10110201,
|
||||
10110201,
|
||||
10110102,
|
||||
02112020,
|
||||
|
||||
10110103,
|
||||
00022200,
|
||||
5,
|
||||
000000000000000008000000000000000000000000000000,
|
||||
10110103,
|
||||
0, //60
|
||||
|
||||
#MEASURE 5/4
|
||||
1011201010,
|
||||
#MEASURE 4/4
|
||||
10112011,
|
||||
#MEASURE 3/4
|
||||
122,
|
||||
|
||||
#MEASURE 5/4
|
||||
1011201010,
|
||||
#MEASURE 4/4
|
||||
10112011,
|
||||
#MEASURE 3/4
|
||||
122, //66
|
||||
|
||||
#MEASURE 5/4
|
||||
1011201010,
|
||||
#MEASURE 4/4
|
||||
10112011,
|
||||
#MEASURE 3/4
|
||||
122,
|
||||
|
||||
#MEASURE 4/4
|
||||
30430430,
|
||||
43043000, //71
|
||||
#GOGOEND
|
||||
|
||||
0202,
|
||||
0202,
|
||||
0202,
|
||||
00200021,
|
||||
|
||||
10112021,
|
||||
10110303,
|
||||
00012221,
|
||||
02221111, //79
|
||||
|
||||
#GOGOSTART
|
||||
10112021,
|
||||
10110101,
|
||||
10201120,
|
||||
11211001,
|
||||
|
||||
10112021,
|
||||
10110101,
|
||||
10202021,
|
||||
21212021, //87
|
||||
|
||||
10110201,
|
||||
10110201,
|
||||
10110102,
|
||||
02112020,
|
||||
|
||||
10110103,
|
||||
00022200,
|
||||
5,
|
||||
000000000000000008000000000000000000000000000000,
|
||||
10110103,
|
||||
#GOGOEND
|
||||
0, //97
|
||||
|
||||
#GOGOSTART
|
||||
9000000000000009,
|
||||
0800,
|
||||
12212212,
|
||||
21212020,
|
||||
|
||||
21121121,
|
||||
12112120,
|
||||
12212212,
|
||||
21212020, //105
|
||||
#GOGOEND
|
||||
|
||||
500000000000000000000000000000000008000000000000,
|
||||
33330333,
|
||||
0,
|
||||
0,
|
||||
0,
|
||||
#BARLINEOFF
|
||||
0, //111
|
||||
#END
|
||||
|
||||
|
||||
COURSE:Normal
|
||||
LEVEL:4
|
||||
BALLOON:3,3,3,3,4,10
|
||||
SCOREINIT:510,4040
|
||||
SCOREDIFF:143
|
||||
|
||||
#START
|
||||
#GOGOSTART
|
||||
0303,
|
||||
0303,
|
||||
0404,
|
||||
0444,
|
||||
|
||||
0303,
|
||||
0303,
|
||||
0404,
|
||||
0440, //8
|
||||
#GOGOEND
|
||||
|
||||
1,
|
||||
0,
|
||||
2,
|
||||
0,
|
||||
|
||||
1,
|
||||
00000005,
|
||||
000000000000000000000000000000000008000000000000,
|
||||
33003300, //16
|
||||
|
||||
10110000,
|
||||
20220000,
|
||||
10110110,
|
||||
0,
|
||||
|
||||
10110000,
|
||||
20220050,
|
||||
000000000000000000000000000000000000000000000008,
|
||||
#BPMCHANGE 193.66
|
||||
0
|
||||
#BPMCHANGE 171.2
|
||||
0
|
||||
#BPMCHANGE 157.8
|
||||
0
|
||||
#BPMCHANGE 141.34
|
||||
0,
|
||||
|
||||
#BPMCHANGE 140
|
||||
700000000000000008000000700000000000000008000000,
|
||||
700000000000000008000000700000000000000008000000, //26
|
||||
|
||||
#GOGOSTART
|
||||
11,
|
||||
10003330,
|
||||
31,
|
||||
1044,
|
||||
|
||||
41,
|
||||
10003330,
|
||||
3000003000300300,
|
||||
#GOGOEND
|
||||
#BPMCHANGE 195
|
||||
#SCROLL 0.72
|
||||
3
|
||||
#SCROLL 1
|
||||
0, //34
|
||||
|
||||
1202,
|
||||
1202,
|
||||
1202,
|
||||
1202,
|
||||
|
||||
1120,
|
||||
1120,
|
||||
10101110,
|
||||
78, //42
|
||||
|
||||
#GOGOSTART
|
||||
10110000,
|
||||
10110105,
|
||||
0,
|
||||
000008000000000000000000000000000000000000000000,
|
||||
|
||||
20220000,
|
||||
20220205,
|
||||
0,
|
||||
000000000000000000000008000000000000000000000000, //50
|
||||
|
||||
10110200,
|
||||
10110200,
|
||||
10110102,
|
||||
02202000,
|
||||
|
||||
10110103,
|
||||
00022200,
|
||||
5,
|
||||
000000000000000008000000000000000000000000000000,
|
||||
10110103,
|
||||
0, //60
|
||||
|
||||
#MEASURE 5/4
|
||||
1001001010,
|
||||
#MEASURE 4/4
|
||||
10010010,
|
||||
#MEASURE 3/4
|
||||
122,
|
||||
|
||||
#MEASURE 5/4
|
||||
1001001010,
|
||||
#MEASURE 4/4
|
||||
10010010,
|
||||
#MEASURE 3/4
|
||||
122, //66
|
||||
|
||||
#MEASURE 5/4
|
||||
1001001010,
|
||||
#MEASURE 4/4
|
||||
10010010,
|
||||
#MEASURE 3/4
|
||||
122,
|
||||
|
||||
#MEASURE 4/4
|
||||
30030030,
|
||||
03003000, //71
|
||||
#GOGOEND
|
||||
|
||||
0202,
|
||||
0202,
|
||||
0202,
|
||||
0202,
|
||||
|
||||
10110000,
|
||||
10110303,
|
||||
00000600,
|
||||
000000000000000000000008000000000000000000000000, //79
|
||||
|
||||
#GOGOSTART
|
||||
10110000,
|
||||
10110105,
|
||||
0,
|
||||
000008000000000000000000000000000000000000000000,
|
||||
|
||||
20220000,
|
||||
20220205,
|
||||
0,
|
||||
000000000000000000000008000000000000000000000000, //87
|
||||
|
||||
10110200,
|
||||
10110200,
|
||||
10110102,
|
||||
02202000,
|
||||
|
||||
10110103,
|
||||
00022200,
|
||||
5,
|
||||
000000000000000008000000000000000000000000000000,
|
||||
10110103,
|
||||
#GOGOEND
|
||||
0, //97
|
||||
|
||||
#GOGOSTART
|
||||
9000000000000009,
|
||||
0800,
|
||||
0303,
|
||||
0444,
|
||||
|
||||
0303,
|
||||
0404,
|
||||
0303,
|
||||
0444,//105
|
||||
#GOGOEND
|
||||
|
||||
500000000000000000000000000000000008000000000000,
|
||||
33330333,
|
||||
0,
|
||||
0,
|
||||
0,
|
||||
#BARLINEOFF
|
||||
0, //111
|
||||
#END
|
||||
|
||||
|
||||
COURSE:Easy
|
||||
LEVEL:3
|
||||
BALLOON:3,3,3,3,3,8
|
||||
SCOREINIT:450,5850
|
||||
SCOREDIFF:125
|
||||
|
||||
#START
|
||||
#GOGOSTART
|
||||
0303,
|
||||
0303,
|
||||
0404,
|
||||
0404,
|
||||
|
||||
0303,
|
||||
0303,
|
||||
0404,
|
||||
0440, //8
|
||||
#GOGOEND
|
||||
|
||||
1,
|
||||
0,
|
||||
2,
|
||||
0,
|
||||
|
||||
1,
|
||||
00000005,
|
||||
000000000000000000000000000008000000000000000000,
|
||||
33, //16
|
||||
|
||||
11,
|
||||
22,
|
||||
11,
|
||||
2,
|
||||
|
||||
1100,
|
||||
2205,
|
||||
000000000000000000000000000000000000000000000008,
|
||||
#BPMCHANGE 193.66
|
||||
0
|
||||
#BPMCHANGE 171.2
|
||||
0
|
||||
#BPMCHANGE 157.8
|
||||
0
|
||||
#BPMCHANGE 141.34
|
||||
0,
|
||||
|
||||
#BPMCHANGE 140
|
||||
700000000000000008000000700000000000000008000000,
|
||||
700000000000000008000000700000000000000008000000, //26
|
||||
|
||||
#GOGOSTART
|
||||
11,
|
||||
1033,
|
||||
31,
|
||||
1044,
|
||||
|
||||
41,
|
||||
1033,
|
||||
600000000000000000000000000008000000000000000000,
|
||||
#GOGOEND
|
||||
#BPMCHANGE 195
|
||||
#SCROLL 0.72
|
||||
3
|
||||
#SCROLL 1
|
||||
0, //34
|
||||
|
||||
1001,
|
||||
1001,
|
||||
2002,
|
||||
2002,
|
||||
|
||||
11,
|
||||
22,
|
||||
1111,
|
||||
78, //42
|
||||
|
||||
#GOGOSTART
|
||||
1100,
|
||||
10100005,
|
||||
0,
|
||||
000008000000000000000000000000000000000000000000,
|
||||
|
||||
2200,
|
||||
20200005,
|
||||
0,
|
||||
000000000000000000000008000000000000000000000000, //50
|
||||
|
||||
12,
|
||||
12,
|
||||
11,
|
||||
1120,
|
||||
|
||||
10101003,
|
||||
0,
|
||||
5,
|
||||
000000000000000008000000000000000000000000000000,
|
||||
10101003,
|
||||
0, //60
|
||||
|
||||
#MEASURE 5/4
|
||||
10011,
|
||||
#MEASURE 4/4
|
||||
1001,
|
||||
#MEASURE 3/4
|
||||
110,
|
||||
|
||||
#MEASURE 5/4
|
||||
10011,
|
||||
#MEASURE 4/4
|
||||
1001,
|
||||
#MEASURE 3/4
|
||||
110, //66
|
||||
|
||||
#MEASURE 5/4
|
||||
10011,
|
||||
#MEASURE 4/4
|
||||
1001,
|
||||
#MEASURE 3/4
|
||||
110,
|
||||
|
||||
#MEASURE 4/4
|
||||
30030030,
|
||||
03003000, //71
|
||||
#GOGOEND
|
||||
|
||||
0202,
|
||||
0202,
|
||||
0202,
|
||||
0202,
|
||||
|
||||
1,
|
||||
10100303,
|
||||
00000600,
|
||||
000000000000000000000008000000000000000000000000, //79
|
||||
|
||||
#GOGOSTART
|
||||
1100,
|
||||
10100005,
|
||||
0,
|
||||
000008000000000000000000000000000000000000000000,
|
||||
|
||||
2200,
|
||||
20200005,
|
||||
0,
|
||||
000000000000000000000008000000000000000000000000, //87
|
||||
|
||||
12,
|
||||
12,
|
||||
11,
|
||||
1120,
|
||||
|
||||
10101003,
|
||||
0,
|
||||
5,
|
||||
000000000000000008000000000000000000000000000000,
|
||||
10101003,
|
||||
#GOGOEND
|
||||
0, //97
|
||||
|
||||
#GOGOSTART
|
||||
9000000000000009,
|
||||
0800,
|
||||
0303,
|
||||
0404,
|
||||
|
||||
0303,
|
||||
0404,
|
||||
0303,
|
||||
0404, //105
|
||||
#GOGOEND
|
||||
|
||||
0,
|
||||
30300303,
|
||||
0,
|
||||
0,
|
||||
0,
|
||||
#BARLINEOFF
|
||||
0, //111
|
||||
#END
|
||||
Reference in New Issue
Block a user