tja
This commit is contained in:
499
tja/574.tja
Normal file
499
tja/574.tja
Normal file
@@ -0,0 +1,499 @@
|
||||
//TJADB Project
|
||||
TITLE:SstTAarR*
|
||||
TITLEJA:SstTAarR*
|
||||
SUBTITLE:--M-O-T-U feat. Hatsune Miku
|
||||
SUBTITLEJA:M-O-T-U feat.初音ミク
|
||||
BPM:200
|
||||
WAVE:SstTAarR.ogg
|
||||
OFFSET:-1.500
|
||||
DEMOSTART:78.300
|
||||
|
||||
COURSE:Oni
|
||||
LEVEL:10
|
||||
SCOREINIT:350
|
||||
SCOREDIFF:100
|
||||
|
||||
|
||||
#START
|
||||
|
||||
|
||||
#SCROLL 0.75
|
||||
22220200,
|
||||
20202220,
|
||||
22220200,
|
||||
2000200022202020,
|
||||
22220200,
|
||||
2000202011201120,
|
||||
22220200,
|
||||
2000202022221110,
|
||||
12122212,
|
||||
12212220,
|
||||
12122212,
|
||||
1020201022202020,
|
||||
12122212,
|
||||
1020201011201120,
|
||||
12122212,
|
||||
3,
|
||||
#SCROLL 1
|
||||
1022201000102010,
|
||||
1022201020201010,
|
||||
1022201000102010,
|
||||
1022201022202010,
|
||||
1022201000102010,
|
||||
1022201020201010,
|
||||
1022201000102010,
|
||||
1022201022202010,
|
||||
1022201000102010,
|
||||
1022201020221010,
|
||||
1022201000102010,
|
||||
1022221022202010,
|
||||
1022201000102010,
|
||||
1022201020221010,
|
||||
1022221000102010,
|
||||
3,
|
||||
#SCROLL 0.75
|
||||
20202022,
|
||||
2222,
|
||||
20202022,
|
||||
22202222,
|
||||
20202022,
|
||||
2222,
|
||||
20202022,
|
||||
22222020,
|
||||
12121211,
|
||||
12121010,
|
||||
12121211,
|
||||
12121220,
|
||||
11111212,
|
||||
1010101012101210,
|
||||
#SCROLL 3
|
||||
500000000000000000000000000000000000000000000008,
|
||||
#SCROLL 1
|
||||
,
|
||||
1011021020202000,
|
||||
1011021120120120,
|
||||
1010222010002220,
|
||||
1011021120120120,
|
||||
1011021020202000,
|
||||
1011021120120120,
|
||||
1010222010222220,
|
||||
1011021120120120,
|
||||
1111111120202000,
|
||||
1011021120120120,
|
||||
1010222010022222,
|
||||
1011021120120120,
|
||||
1111111120202000,
|
||||
1011021120120120,
|
||||
1010222210202022,
|
||||
1,//64
|
||||
|
||||
#GOGOSTART
|
||||
2222101120202022,
|
||||
2222021020120120,
|
||||
2222202210202022,
|
||||
2222021120120120,
|
||||
2222111120202022,
|
||||
2222021020120120,
|
||||
2222202210202022,
|
||||
2222021120120120,
|
||||
2222111120202022,
|
||||
2222021120120120,
|
||||
2222112210202022,
|
||||
2222021120120120,
|
||||
2222111120202022,
|
||||
2222021120120120,
|
||||
2222112210202022,
|
||||
2222021120120120,//80
|
||||
|
||||
#SCROLL 0.75
|
||||
#GOGOEND
|
||||
3000300030222220,
|
||||
3003003022221110,
|
||||
3000300030222220,
|
||||
3003003022221110,
|
||||
3000300030221210,
|
||||
3003003022121210,
|
||||
3000300030212210,
|
||||
3003003022221212,//88
|
||||
|
||||
#SCROLL 1
|
||||
#GOGOSTART
|
||||
1020112210201202,
|
||||
1020112210202222,
|
||||
1020112210201202,
|
||||
1020112210212210,
|
||||
1010101012121210,
|
||||
1212121212122212,
|
||||
1122112212112120,//95
|
||||
|
||||
#GOGOEND
|
||||
3,
|
||||
#BARLINEOFF
|
||||
#SCROLL 8
|
||||
500008000000000000000000000000000000000000000000,
|
||||
|
||||
|
||||
#END
|
||||
|
||||
|
||||
COURSE:Hard
|
||||
LEVEL:8
|
||||
SCOREINIT:440
|
||||
SCOREDIFF:110
|
||||
|
||||
#START
|
||||
#SCROLL 0.75
|
||||
22220200,
|
||||
20202220,
|
||||
22220200,
|
||||
20202220,
|
||||
22220200,
|
||||
20221212,
|
||||
22220200,
|
||||
20222210,
|
||||
12122100,
|
||||
10212220,
|
||||
12122100,
|
||||
10212220,
|
||||
12122100,
|
||||
10211210,
|
||||
12122100,
|
||||
3,
|
||||
#SCROLL 1
|
||||
10210120,
|
||||
10212210,
|
||||
10210120,
|
||||
10212220,
|
||||
10210120,
|
||||
10212210,
|
||||
10210120,
|
||||
10212220,
|
||||
12210120,
|
||||
10212210,
|
||||
12210120,
|
||||
10212220,
|
||||
12210120,
|
||||
10212120,
|
||||
12210120,
|
||||
3,
|
||||
#SCROLL 0.75
|
||||
20202022,
|
||||
2222,
|
||||
20202022,
|
||||
22202220,
|
||||
20202022,
|
||||
2222,
|
||||
20202022,
|
||||
20222020,
|
||||
10101011,
|
||||
12121210,
|
||||
10101011,
|
||||
12121220,
|
||||
11111010,
|
||||
11111111,
|
||||
#SCROLL 3
|
||||
500000000000000000000000000000000000000000000008,
|
||||
#SCROLL 1
|
||||
,
|
||||
1001001020202000,
|
||||
1001001020020020,
|
||||
1001001020002000,
|
||||
100000000100000000100000500000000008000000000000,
|
||||
1001001020202000,
|
||||
1001001020020020,
|
||||
1001001020002000,
|
||||
100000000100000000100000500000000008000000000000,
|
||||
1110100020202000,
|
||||
1001001020020020,
|
||||
1001001020002000,
|
||||
100000000100000000100000500000000008000000000000,
|
||||
1110100020202000,
|
||||
1001001020020020,
|
||||
1001001020002220,
|
||||
3,//64
|
||||
|
||||
#GOGOSTART
|
||||
2220100020202000,
|
||||
2220101020020020,
|
||||
22101120,
|
||||
200200200000100000100000500000000008000000000000,
|
||||
2220100020202000,
|
||||
2220100020020020,
|
||||
22101120,
|
||||
200200200000100000100000500000000008000000000000,
|
||||
2220111020202000,
|
||||
2220100020020020,
|
||||
22101221,
|
||||
200200200000100000100000500000000008000000000000,
|
||||
2220111020202000,
|
||||
2220100020020020,
|
||||
22112211,
|
||||
2220100020000000,//80
|
||||
|
||||
#SCROLL 0.75
|
||||
#GOGOEND
|
||||
30303222,
|
||||
3003003020201000,
|
||||
30303222,
|
||||
3003003020201010,
|
||||
30303221,
|
||||
3003003020102010,
|
||||
30303221,
|
||||
3003003020201010,//88
|
||||
|
||||
#SCROLL 1
|
||||
#GOGOSTART
|
||||
1020102010201110,
|
||||
1020102010202220,
|
||||
1020102010201110,
|
||||
1020102011102220,
|
||||
11111111,
|
||||
11111111,
|
||||
1110111011102220,//95
|
||||
|
||||
#GOGOEND
|
||||
3,
|
||||
#BARLINEOFF
|
||||
#SCROLL 8
|
||||
500008000000000000000000000000000000000000000000,
|
||||
#END
|
||||
|
||||
COURSE:Normal
|
||||
LEVEL:7
|
||||
BALLOON:7,8
|
||||
|
||||
#START
|
||||
#SCROLL 0.75
|
||||
0202,
|
||||
0222,
|
||||
0202,
|
||||
0222,
|
||||
0202,
|
||||
0212,
|
||||
0202,
|
||||
00202220,
|
||||
1210,
|
||||
10202220,
|
||||
1210,
|
||||
10202220,
|
||||
1210,
|
||||
10201210,
|
||||
1210,
|
||||
3,
|
||||
#SCROLL 1
|
||||
10110100,
|
||||
10112020,
|
||||
10110100,
|
||||
10112020,
|
||||
10110100,
|
||||
10112020,
|
||||
10110100,
|
||||
10112220,
|
||||
10110101,
|
||||
10112020,
|
||||
10110101,
|
||||
10112020,
|
||||
10110101,
|
||||
10112220,
|
||||
10110100,
|
||||
3,
|
||||
#SCROLL 0.75
|
||||
20202022,
|
||||
2220,
|
||||
20202022,
|
||||
20202220,
|
||||
20202022,
|
||||
2220,
|
||||
20202022,
|
||||
20222020,
|
||||
10201011,
|
||||
1210,
|
||||
10201011,
|
||||
1212,
|
||||
1111,
|
||||
11111111,
|
||||
#SCROLL 1
|
||||
9009,
|
||||
8,
|
||||
11102020,
|
||||
10010020,
|
||||
11102020,
|
||||
10010020,
|
||||
11102220,
|
||||
10010020,
|
||||
11102020,
|
||||
10010020,
|
||||
11112020,
|
||||
10010020,
|
||||
11102220,
|
||||
10010020,
|
||||
11112020,
|
||||
10010020,
|
||||
11102220,
|
||||
3,//64
|
||||
|
||||
#GOGOSTART
|
||||
11101022,
|
||||
22201010,
|
||||
11101022,
|
||||
22201000,
|
||||
11101022,
|
||||
22201010,
|
||||
11101022,
|
||||
22201000,
|
||||
11111022,
|
||||
22201010,
|
||||
11101022,
|
||||
22201000,
|
||||
11111022,
|
||||
22202010,
|
||||
11101022,
|
||||
22102000,//80
|
||||
|
||||
#SCROLL 0.75
|
||||
#GOGOEND
|
||||
3330,
|
||||
3003003000000000,
|
||||
3330,
|
||||
3003003000000000,
|
||||
3330,
|
||||
3003003000000000,
|
||||
3330,
|
||||
3003003000000000,//88
|
||||
|
||||
#SCROLL 1
|
||||
#GOGOSTART
|
||||
12101212,
|
||||
12101210,
|
||||
12101212,
|
||||
12102220,
|
||||
11111111,
|
||||
11111111,
|
||||
7,//95
|
||||
|
||||
#GOGOEND
|
||||
8,
|
||||
#BARLINEOFF
|
||||
#SCROLL 8
|
||||
500008000000000000000000000000000000000000000000,
|
||||
#END
|
||||
|
||||
COURSE:Easy
|
||||
LEVEL:5
|
||||
BALLOON:6,4,4,4,7
|
||||
|
||||
#START
|
||||
#SCROLL 0.75
|
||||
,
|
||||
0022,
|
||||
,
|
||||
0022,
|
||||
,
|
||||
0012,
|
||||
,
|
||||
0022,
|
||||
1,
|
||||
1022,
|
||||
1,
|
||||
1022,
|
||||
1,
|
||||
1022,
|
||||
11,
|
||||
3,
|
||||
#SCROLL 1
|
||||
10010000,
|
||||
1022,
|
||||
10010000,
|
||||
1122,
|
||||
10010000,
|
||||
1122,
|
||||
10010000,
|
||||
1122,
|
||||
10010000,
|
||||
1122,
|
||||
10010000,
|
||||
1222,
|
||||
10010000,
|
||||
1122,
|
||||
10010010,
|
||||
3,
|
||||
#SCROLL 0.75
|
||||
22,
|
||||
2220,
|
||||
22,
|
||||
2222,
|
||||
22,
|
||||
2220,
|
||||
22,
|
||||
2220,
|
||||
1111,
|
||||
1210,
|
||||
1111,
|
||||
1222,
|
||||
1111,
|
||||
1111,
|
||||
#SCROLL 1
|
||||
9009,
|
||||
8,
|
||||
1011,
|
||||
500000000000000000000000000008000000000000000000,
|
||||
1012,
|
||||
500000000000000000000000000008000000000000000000,
|
||||
1011,
|
||||
70000800,
|
||||
1012,
|
||||
70000800,
|
||||
1022,
|
||||
500000000000000000000000000008000000000000000000,
|
||||
1022,
|
||||
70000800,
|
||||
1122,
|
||||
500000000000000000000000000008000000000000000000,
|
||||
10102220,
|
||||
3,//64
|
||||
|
||||
#GOGOSTART
|
||||
10101011,
|
||||
1110,
|
||||
2222,
|
||||
500000000000000000000000000008000000000000000000,
|
||||
10101011,
|
||||
1110,
|
||||
2222,
|
||||
500000000000000000000000000008000000000000000000,
|
||||
10101022,
|
||||
2210,
|
||||
2222,
|
||||
500000000000000000000000000008000000000000000000,
|
||||
10201022,
|
||||
2210,
|
||||
20222020,
|
||||
500000000000000000000000000008000000000000000000,//80
|
||||
|
||||
#SCROLL 0.75
|
||||
#GOGOEND
|
||||
3330,
|
||||
3,
|
||||
3330,
|
||||
3,
|
||||
3330,
|
||||
3,
|
||||
3334,
|
||||
3,//88
|
||||
|
||||
#SCROLL 1
|
||||
#GOGOSTART
|
||||
10111011,
|
||||
1122,
|
||||
10111011,
|
||||
10102220,
|
||||
10111011,
|
||||
10101110,
|
||||
7,//95
|
||||
|
||||
#GOGOEND
|
||||
8,
|
||||
#BARLINEOFF
|
||||
#SCROLL 8
|
||||
500008000000000000000000000000000000000000000000,
|
||||
#END
|
||||
Reference in New Issue
Block a user