This commit is contained in:
2026-03-04 23:59:27 +09:00
parent 6e0312f5b4
commit 4b4e2b8c98
1128 changed files with 668765 additions and 0 deletions

456
tja/575.tja Normal file
View File

@@ -0,0 +1,456 @@
//TJADB Project
TITLE:Kokorobo
TITLEJA:ココロボ
SUBTITLE:--Ujico*
SUBTITLEJA:Ujico*
BPM:360
WAVE:Kokorobo.ogg
OFFSET:-2.348
DEMOSTART:28.681
COURSE:Oni
LEVEL:10
BALLOON:55,55
SCOREINIT:580
SCOREDIFF:120
#START
#MEASURE 8/4
#SCROLL 0.5
,
20070000,
,
,
08,
3,
2222200000000000,
3,
40070000,
,
,
08,
30020020,
,
20020010,
,
10020020,
,
20020010,
,
1221221020110100,
0010010010201010,
22001000100022000010100022001000,
2012012012122222,
1221221020110120,
0010212020201010,
22001000100022001000100040000000,
0003,
10220220,
2220,
10020020,
,
1221221020110120,
0010212010201000,
1443,
0011002200122222,
1221221020110100,
0012210012100210,
22001000100022000010100022001000,
2012012012122222,
1221221020110100,
0012212010102000,
1443,
0003,//44
#GOGOSTART
10202010102010002220202020202020,
10202010202010002220202020202020,
1222221222221222,
2112112112112110,
1221101020111020,
0010210011201010,
1201101021102222,
10202010102010002220202020202020,
10202010202010002220202020202020,
1222221222221222,
2112112112112111,
2222222212222212,
2222122222122222,
22202020202020201020202020202020,//58
#GOGOEND
1,
,
,
,
20020020,
,
1221,
000000000000000000000000200200200200100010001000,
500000000008000000000000200000200000100000100000200000000000100000100000000000100000200000200000,
2010210210102210,
22001000100022000010100022001000,
2012012012122222,
1221221020110120,
0010212010201000,
1443,
000000000000000000000000200200200200100010001000,
102020201020202010201011,
102020100100200000200000,
100202100100120000101010,
100000201000200000201000000000100100100100100100,
22001000100022000010100022001000,
2012012012122222,
1443,
,
3,
,
,
0000000000121210,//86
#GOGOSTART
22202020201010102000101020102020,
#BARLINEOFF
2211212211212222,
1112101222102040,//89
#GOGOEND
#END
COURSE:Hard
LEVEL:6
BALLOON:40,40,40,40
SCOREINIT:700
SCOREDIFF:190
#START
#MEASURE 8/4
#SCROLL 0.5
,
20070000,
,
,
08,
3,
,
2,
40070000,
,
,
08,
30020020,
,
20020010,
,
10020020,
,
20020010,
,
1001001020111000,
0010010010201000,
21120010,
2002002002022000,
1000201020111020,
01201210,
21121120,
,
10220220,
2220,
10020020,
,
1000201020111020,
01201120,
1443,
01020120,
1001001020111000,
0010010010201000,
21120120,
2002002002022000,
1001001020111000,
0010010010102000,
1443,
,//44
#GOGOSTART
1001101020100000,
1001101020100000,
2010102001102000,
20070000,
,
,
08,
1001101020100010,
1001101020100010,
2010102001102010,
40070000,
,
,
08,//58
#SCROLL 1
#GOGOEND
3,
#SCROLL 0.5
,
,
,
20020020,
,
1221,
0000000022222000,
3000001020111000,
0010010010102000,
21120120,
2002002002022000,
1000001020111020,
01201120,
1443,
,
111100222200,
10112000,
100000000200000000101010,
1010201000100200,
21120120,
2002002002022000,
1443,
,
3,
,
,
0000000000111111,//86
#GOGOSTART
1000201022201020,
#BARLINEOFF
01201210,
10210122,//89
#GOGOEND
,
#END
COURSE:Normal
LEVEL:4
BALLOON:25,25,25,35
SCOREINIT:1120
SCOREDIFF:290
#START
#MEASURE 8/4
#SCROLL 0.5
,
00070000,
,
,
08,
3,
,
,
40070000,
,
,
08,
3,
,
20020020,
,
20020020,
,
20020020,
,
10020010,
01001100,
20020020,
,
10020012,
00200200,
10020010,
,
3,
2220,
10010010,
,
10020012,
00200200,
1221,
,
10020010,
01001100,
10020010,
2002002002002000,
10020010,
01001100,
1221,
,//44
#GOGOSTART
10012000,
10012000,
20020020,
20070000,
,
,
08,
10012000,
10012000,
20020020,
20070000,
,
,
,//58
#GOGOEND
8,
,
,
,
20020020,
,
1221,
,
30010010,
2220,
10010010,
2002002002002000,
10020012,
00200200,
1221,
,
12,
1120,
1022,
,
10010010,
2002002002002000,
1221,
,
3,
,
,
,//86
#GOGOSTART
10020012,
#BARLINEOFF
00200200,
10010011,//89
#GOGOEND
,
#END
COURSE:Easy
LEVEL:3
BALLOON:23,23,23,30
SCOREINIT:1170
SCOREDIFF:290
#START
#MEASURE 8/4
#SCROLL 0.5
,
00070000,
,
,
08,
3,
,
1,
20070000,
,
,
08,
20020020,
,
20020020,
,
20020020,
,
20020020,
,
10010010,
,
10010010,
,
10010010,
,
10010010,
,
3,
2220,
1,
,
10010010,
,
0222,
,
10010010,
,
10010010,
,
10010010,
,
0222,
,//44
#GOGOSTART
5,
000000000000000000000008000000000000000000000000000000000000000000000000000000000000000000000000,
20020020,
7,
,
,
08,
5,
000000000000000000000008000000000000000000000000000000000000000000000000000000000000000000000000,
20020020,
7,
,
,
,//58
#GOGOEND
8,
,
,
,
20020020,
,
0222,
,
3,
2220,
20020020,
,
10010010,
,
0222,
,
12,
12,
10010010,
,
20020020,
,
0222,
,
3,
,
20020020,
,//86
#GOGOSTART
10010010,
#BARLINEOFF
,
30030030,//89
#GOGOEND
,
#END