tja
This commit is contained in:
871
tja/601.tja
Normal file
871
tja/601.tja
Normal file
@@ -0,0 +1,871 @@
|
||||
//TJADB Project
|
||||
TITLE:Splatoon 2 Medley
|
||||
TITLEJA:スプラトゥーン2 メドレー
|
||||
SUBTITLE:--Toru Minegishi/Splatoon 2
|
||||
BPM:147.76
|
||||
WAVE:Splatoon 2 Medley.ogg
|
||||
OFFSET:-3.399
|
||||
DEMOSTART:67.225
|
||||
|
||||
COURSE:Edit
|
||||
LEVEL:9
|
||||
SCOREINIT:430
|
||||
SCOREDIFF:105
|
||||
|
||||
#START
|
||||
0000000000000011,
|
||||
#BPMCHANGE 147.43
|
||||
2111202020003000,
|
||||
#BPMCHANGE 148.45
|
||||
#SCROLL 0.99
|
||||
1022102210210120,
|
||||
#BPMCHANGE 147.26
|
||||
#SCROLL 1
|
||||
1022121210212010,
|
||||
#BPMCHANGE 148.58
|
||||
#SCROLL 0.99
|
||||
1022102210210120,
|
||||
#BPMCHANGE 148.85
|
||||
1122102010002000,
|
||||
#BPMCHANGE 148.58
|
||||
1022102210210120,
|
||||
#BPMCHANGE 147.11
|
||||
#SCROLL 1
|
||||
1022121210212010,
|
||||
#BPMCHANGE 148.88
|
||||
#SCROLL 0.99
|
||||
1022102210210120,
|
||||
#BPMCHANGE 146.61
|
||||
#SCROLL 1
|
||||
1111102212202200,
|
||||
#BPMCHANGE 147.92
|
||||
1010222021020010,
|
||||
#BPMCHANGE 148.05
|
||||
#SCROLL 0.99
|
||||
2120202122020000,
|
||||
#BPMCHANGE 147.66
|
||||
#SCROLL 1
|
||||
1010222021020012,
|
||||
#BPMCHANGE 148.91
|
||||
#SCROLL 0.99
|
||||
2220202122020011,
|
||||
#BPMCHANGE 147.33
|
||||
#SCROLL 1
|
||||
1010222021020122,
|
||||
#BPMCHANGE 148.32
|
||||
#SCROLL 0.99
|
||||
0220202122020000,
|
||||
#BPMCHANGE 147.79
|
||||
#SCROLL 1
|
||||
1011222022020110,
|
||||
#BPMCHANGE 147.13
|
||||
2221202040011010,
|
||||
#BPMCHANGE 148.85
|
||||
#SCROLL 0.99
|
||||
1010222021020000,
|
||||
#BPMCHANGE 148.6
|
||||
1120112022102210,
|
||||
#BPMCHANGE 147.12
|
||||
#SCROLL 1
|
||||
1010222022020000,
|
||||
#BPMCHANGE 148.45
|
||||
#SCROLL 0.99
|
||||
1120112022102210,
|
||||
#BPMCHANGE 147.79
|
||||
#SCROLL 1
|
||||
1011202022020122,
|
||||
#BPMCHANGE 148.05
|
||||
#SCROLL 0.99
|
||||
0221202021020000,
|
||||
#BPMCHANGE 146.87
|
||||
#SCROLL 1
|
||||
1011222021020010,
|
||||
#BPMCHANGE 148.85
|
||||
#SCROLL 0.99
|
||||
2221202040112222,
|
||||
#BPMCHANGE 148.05
|
||||
500000000000000008000000500000000000000008000000,
|
||||
#BPMCHANGE 148.84
|
||||
1120112010112000,
|
||||
#BPMCHANGE 146.62
|
||||
#SCROLL 1
|
||||
500000000000000008000000500000000000000008000000,
|
||||
#BPMCHANGE 149.4
|
||||
#SCROLL 0.99
|
||||
200200200100200000200000200000101010200000000000,
|
||||
#BPMCHANGE 146.99
|
||||
#SCROLL 1
|
||||
600000000000000008000000600000000000000008000000,
|
||||
#BPMCHANGE 147.39
|
||||
1120112010221000,
|
||||
#BPMCHANGE 149.53
|
||||
#SCROLL 0.98
|
||||
600000000000000008000000600000000000000008000000,
|
||||
#MEASURE 3/4
|
||||
#BPMCHANGE 148.65
|
||||
#SCROLL 0.99
|
||||
343340,
|
||||
111122221000,
|
||||
#MEASURE 4/4
|
||||
#BPMCHANGE 146.87
|
||||
#SCROLL 1
|
||||
2122202020004000,
|
||||
#GOGOSTART
|
||||
#BPMCHANGE 193.84
|
||||
2022101010112000,
|
||||
#GOGOEND
|
||||
#BPMCHANGE 186.42
|
||||
#SCROLL 1.02
|
||||
11022011,
|
||||
#BPMCHANGE 194.56
|
||||
#SCROLL 0.98
|
||||
0020200010112000,
|
||||
#BPMCHANGE 190.74
|
||||
#SCROLL 1
|
||||
11122211,
|
||||
#BPMCHANGE 191.91
|
||||
#SCROLL 0.99
|
||||
1020202010112222,
|
||||
#GOGOSTART
|
||||
#BPMCHANGE 187.87
|
||||
#SCROLL 1.01
|
||||
1020102011111022,
|
||||
#BPMCHANGE 191.19
|
||||
#SCROLL 0.99
|
||||
1020112011221020,
|
||||
#BPMCHANGE 190.96
|
||||
#SCROLL 1
|
||||
1020102011111011,
|
||||
#BPMCHANGE 193.42
|
||||
#SCROLL 0.98
|
||||
2011102220112210,
|
||||
#BPMCHANGE 186.65
|
||||
#SCROLL 1.02
|
||||
1020102011111022,
|
||||
#BPMCHANGE 192.74
|
||||
#SCROLL 0.99
|
||||
1020112011221020,
|
||||
#BPMCHANGE 191.95
|
||||
100111100100000200300000,
|
||||
#BPMCHANGE 189.33
|
||||
#SCROLL 1
|
||||
200222200200000100400000,
|
||||
#BPMCHANGE 195.25
|
||||
#SCROLL 0.97
|
||||
1020102011211022,
|
||||
#BPMCHANGE 189
|
||||
#SCROLL 1.01
|
||||
1020112011221020,
|
||||
#BPMCHANGE 192.07
|
||||
#SCROLL 0.99
|
||||
1020102011211011,
|
||||
#BPMCHANGE 189
|
||||
#SCROLL 1.01
|
||||
2011102220112210,
|
||||
#BPMCHANGE 191.5
|
||||
#SCROLL 0.99
|
||||
1020102011211022,
|
||||
#BPMCHANGE 191.54
|
||||
1020112011221020,
|
||||
#BPMCHANGE 189.65
|
||||
#SCROLL 1
|
||||
100111100100000100400000,
|
||||
#BPMCHANGE 187.93
|
||||
#SCROLL 1.01
|
||||
200222200200000200300000,
|
||||
#GOGOEND
|
||||
#BPMCHANGE 192.3
|
||||
#SCROLL 0.99
|
||||
20112011,
|
||||
#BPMCHANGE 195.25
|
||||
#SCROLL 0.97
|
||||
21012011,
|
||||
#BPMCHANGE 188.57
|
||||
#SCROLL 1.01
|
||||
20112011,
|
||||
#BPMCHANGE 191.74
|
||||
#SCROLL 0.99
|
||||
2010001120001010,
|
||||
20112021,
|
||||
#BPMCHANGE 190.48
|
||||
#SCROLL 1
|
||||
21012021,
|
||||
#BPMCHANGE 191
|
||||
#SCROLL 0.99
|
||||
2000101120001010,
|
||||
1010200011112000,
|
||||
#BPMCHANGE 192.49
|
||||
2001201020012010,
|
||||
#BPMCHANGE 190.31
|
||||
#SCROLL 1
|
||||
100000000000500000000000000000000000000008000000,
|
||||
#MEASURE 6/4
|
||||
#BPMCHANGE 190.22
|
||||
1040001040001040
|
||||
#BPMCHANGE 191
|
||||
#SCROLL 0.99
|
||||
00102222,
|
||||
#MEASURE 4/4
|
||||
#GOGOSTART
|
||||
1020102011211022,
|
||||
1020112011221120,
|
||||
#BPMCHANGE 192.3
|
||||
1020102011211011,
|
||||
#BPMCHANGE 191.19
|
||||
2012102120112210,
|
||||
1020102011211022,
|
||||
#BPMCHANGE 189.65
|
||||
#SCROLL 1
|
||||
1020112011221120,
|
||||
#BPMCHANGE 190.7
|
||||
100111200100000100400000,
|
||||
#BPMCHANGE 193.92
|
||||
#SCROLL 0.98
|
||||
200000202020100000200000000000100100200200200200,
|
||||
#BPMCHANGE 189
|
||||
#SCROLL 1.01
|
||||
03023030,
|
||||
#BPMCHANGE 190.14
|
||||
#SCROLL 1
|
||||
1110101110101110,
|
||||
#BPMCHANGE 191
|
||||
#SCROLL 0.99
|
||||
1011101022111000,
|
||||
#BPMCHANGE 191.26
|
||||
2210102210101210,
|
||||
#BPMCHANGE 191.46
|
||||
1012101011112000,
|
||||
#BPMCHANGE 190.74
|
||||
#SCROLL 1
|
||||
1120102110202120,
|
||||
#BPMCHANGE 190.52
|
||||
100000200200200000200000100000001000000010000000,
|
||||
#BPMCHANGE 180.15
|
||||
#SCROLL 1.06
|
||||
3,
|
||||
#GOGOEND
|
||||
#BPMCHANGE 178.59
|
||||
#SCROLL 1
|
||||
4444,
|
||||
#BPMCHANGE 181.29
|
||||
#SCROLL 0.99
|
||||
0011202000221030,
|
||||
#END
|
||||
|
||||
COURSE:Oni
|
||||
LEVEL:7
|
||||
BALLOON:26
|
||||
SCOREINIT:620
|
||||
SCOREDIFF:168
|
||||
|
||||
#START
|
||||
0000000000000012,
|
||||
#BPMCHANGE 147.43
|
||||
1210303030000000,
|
||||
#BPMCHANGE 148.45
|
||||
#SCROLL 0.99
|
||||
1000100010210010,
|
||||
#BPMCHANGE 147.26
|
||||
#SCROLL 1
|
||||
0012121210101010,
|
||||
#BPMCHANGE 148.58
|
||||
#SCROLL 0.99
|
||||
1000100010210010,
|
||||
#BPMCHANGE 148.85
|
||||
1212101010000000,
|
||||
#BPMCHANGE 148.58
|
||||
1000100010210010,
|
||||
#BPMCHANGE 147.11
|
||||
#SCROLL 1
|
||||
0012121210101010,
|
||||
#BPMCHANGE 148.88
|
||||
#SCROLL 0.99
|
||||
1000100010210010,
|
||||
#BPMCHANGE 146.61
|
||||
#SCROLL 1
|
||||
1212102121201200,
|
||||
#BPMCHANGE 147.92
|
||||
0000222020020000,
|
||||
#BPMCHANGE 148.05
|
||||
#SCROLL 0.99
|
||||
2020202020020000,
|
||||
#BPMCHANGE 147.66
|
||||
#SCROLL 1
|
||||
0000222020020000,
|
||||
#BPMCHANGE 148.91
|
||||
#SCROLL 0.99
|
||||
2220202020020000,
|
||||
#BPMCHANGE 147.33
|
||||
#SCROLL 1
|
||||
0000202020020022,
|
||||
#BPMCHANGE 148.32
|
||||
#SCROLL 0.99
|
||||
0220202020020000,
|
||||
#BPMCHANGE 147.79
|
||||
#SCROLL 1
|
||||
0000222020020000,
|
||||
#BPMCHANGE 147.13
|
||||
2220202020000000,
|
||||
#BPMCHANGE 148.85
|
||||
#SCROLL 0.99
|
||||
1000222030040000,
|
||||
#BPMCHANGE 148.6
|
||||
12121212,
|
||||
#BPMCHANGE 147.12
|
||||
#SCROLL 1
|
||||
1000222030040000,
|
||||
#BPMCHANGE 148.45
|
||||
#SCROLL 0.99
|
||||
12121212,
|
||||
#BPMCHANGE 147.79
|
||||
#SCROLL 1
|
||||
1000101010010022,
|
||||
#BPMCHANGE 148.05
|
||||
#SCROLL 0.99
|
||||
0220202010121010,
|
||||
#BPMCHANGE 146.87
|
||||
#SCROLL 1
|
||||
1000222010010000,
|
||||
#BPMCHANGE 148.85
|
||||
#SCROLL 0.99
|
||||
1110303040000000,
|
||||
#BPMCHANGE 148.05
|
||||
33,
|
||||
#BPMCHANGE 148.84
|
||||
12121240,
|
||||
#BPMCHANGE 146.62
|
||||
#SCROLL 1
|
||||
33,
|
||||
#BPMCHANGE 149.4
|
||||
#SCROLL 0.99
|
||||
2220202040000000,
|
||||
#BPMCHANGE 146.99
|
||||
#SCROLL 1
|
||||
33,
|
||||
#BPMCHANGE 147.39
|
||||
12121240,
|
||||
#BPMCHANGE 149.53
|
||||
#SCROLL 0.98
|
||||
33,
|
||||
#MEASURE 3/4
|
||||
#BPMCHANGE 148.65
|
||||
#SCROLL 0.99
|
||||
111110,
|
||||
121212121000,
|
||||
#MEASURE 4/4
|
||||
#BPMCHANGE 146.87
|
||||
#SCROLL 1
|
||||
2220202020004000,
|
||||
#GOGOSTART
|
||||
#BPMCHANGE 193.84
|
||||
0,
|
||||
#GOGOEND
|
||||
#BPMCHANGE 186.42
|
||||
#SCROLL 1.02
|
||||
10020010,
|
||||
#BPMCHANGE 194.56
|
||||
#SCROLL 0.98
|
||||
02001120,
|
||||
#BPMCHANGE 190.74
|
||||
#SCROLL 1
|
||||
11122211,
|
||||
#BPMCHANGE 191.91
|
||||
#SCROLL 0.99
|
||||
12223330,
|
||||
#GOGOSTART
|
||||
#BPMCHANGE 187.87
|
||||
#SCROLL 1.01
|
||||
10101101,
|
||||
#BPMCHANGE 191.19
|
||||
#SCROLL 0.99
|
||||
01011010,
|
||||
#BPMCHANGE 190.96
|
||||
#SCROLL 1
|
||||
20202202,
|
||||
#BPMCHANGE 193.42
|
||||
#SCROLL 0.98
|
||||
02022020,
|
||||
#BPMCHANGE 186.65
|
||||
#SCROLL 1.02
|
||||
10101101,
|
||||
#BPMCHANGE 192.74
|
||||
#SCROLL 0.99
|
||||
01011010,
|
||||
#BPMCHANGE 191.95
|
||||
30030000,
|
||||
#BPMCHANGE 189.33
|
||||
#SCROLL 1
|
||||
30030000,
|
||||
#BPMCHANGE 195.25
|
||||
#SCROLL 0.97
|
||||
02111202,
|
||||
#BPMCHANGE 189
|
||||
#SCROLL 1.01
|
||||
02111200,
|
||||
#BPMCHANGE 192.07
|
||||
#SCROLL 0.99
|
||||
02111202,
|
||||
#BPMCHANGE 189
|
||||
#SCROLL 1.01
|
||||
02111200,
|
||||
#BPMCHANGE 191.5
|
||||
#SCROLL 0.99
|
||||
02111202,
|
||||
#BPMCHANGE 191.54
|
||||
02111200,
|
||||
#BPMCHANGE 189.65
|
||||
#SCROLL 1
|
||||
30040000,
|
||||
#BPMCHANGE 187.93
|
||||
#SCROLL 1.01
|
||||
30040010,
|
||||
#GOGOEND
|
||||
#BPMCHANGE 192.3
|
||||
#SCROLL 0.99
|
||||
4,
|
||||
#BPMCHANGE 195.25
|
||||
#SCROLL 0.97
|
||||
10120102,
|
||||
#BPMCHANGE 188.57
|
||||
#SCROLL 1.01
|
||||
11122211,
|
||||
#BPMCHANGE 191.74
|
||||
#SCROLL 0.99
|
||||
12223330,
|
||||
3,
|
||||
#BPMCHANGE 190.48
|
||||
#SCROLL 1
|
||||
10120201,
|
||||
#BPMCHANGE 191
|
||||
#SCROLL 0.99
|
||||
22211122,
|
||||
21114440,
|
||||
#BPMCHANGE 192.49
|
||||
20012001,
|
||||
#BPMCHANGE 190.31
|
||||
#SCROLL 1
|
||||
10201201,
|
||||
#MEASURE 6/4
|
||||
#BPMCHANGE 190.22
|
||||
14004004
|
||||
#BPMCHANGE 191
|
||||
#SCROLL 0.99
|
||||
0040,
|
||||
#MEASURE 4/4
|
||||
#GOGOSTART
|
||||
20201202,
|
||||
02012010,
|
||||
#BPMCHANGE 192.3
|
||||
10102101,
|
||||
#BPMCHANGE 191.19
|
||||
01021020,
|
||||
20201202,
|
||||
#BPMCHANGE 189.65
|
||||
#SCROLL 1
|
||||
02012010,
|
||||
#BPMCHANGE 190.7
|
||||
40030000,
|
||||
#BPMCHANGE 193.92
|
||||
#SCROLL 0.98
|
||||
40030000,
|
||||
#BPMCHANGE 189
|
||||
#SCROLL 1.01
|
||||
04003030,
|
||||
#BPMCHANGE 190.14
|
||||
#SCROLL 1
|
||||
30010020,
|
||||
#BPMCHANGE 191
|
||||
#SCROLL 0.99
|
||||
02001120,
|
||||
#BPMCHANGE 191.26
|
||||
11122211,
|
||||
#BPMCHANGE 191.46
|
||||
12223330,
|
||||
#BPMCHANGE 190.74
|
||||
#SCROLL 1
|
||||
11122211,
|
||||
#BPMCHANGE 190.52
|
||||
100200200200300030003000,
|
||||
#GOGOEND
|
||||
#BPMCHANGE 180.15
|
||||
#SCROLL 1.06
|
||||
3,
|
||||
#BPMCHANGE 178.59
|
||||
#SCROLL 1
|
||||
7,
|
||||
#BPMCHANGE 181.29
|
||||
#SCROLL 0.99
|
||||
,
|
||||
#END
|
||||
|
||||
|
||||
COURSE:Hard
|
||||
LEVEL:5
|
||||
BALLOON:22
|
||||
SCOREINIT:730
|
||||
SCOREDIFF:230
|
||||
|
||||
|
||||
#START
|
||||
|
||||
|
||||
#BPMCHANGE 148
|
||||
00000001,
|
||||
11222000,
|
||||
1120,
|
||||
01012000,
|
||||
1120,
|
||||
01112000,
|
||||
2210,
|
||||
02021000,
|
||||
2120,
|
||||
01112000,
|
||||
1210,
|
||||
01012010,
|
||||
10201002,
|
||||
02221000,
|
||||
2120,
|
||||
01012010,
|
||||
20102002,
|
||||
02221000,
|
||||
1120,
|
||||
10101210,
|
||||
2120,
|
||||
20202120,
|
||||
1120,
|
||||
20212120,
|
||||
2210,
|
||||
20333000,
|
||||
44,
|
||||
01010110,
|
||||
44,
|
||||
01113000,
|
||||
44,
|
||||
02020120,
|
||||
44,
|
||||
#MEASURE 3/4
|
||||
011130,
|
||||
,
|
||||
#MEASURE 4/4
|
||||
02224040,//36
|
||||
|
||||
#BPMCHANGE 191
|
||||
#GOGOSTART
|
||||
,//37
|
||||
|
||||
#GOGOEND
|
||||
11000000,
|
||||
0002,
|
||||
11000000,
|
||||
,//41
|
||||
|
||||
#GOGOSTART
|
||||
10001202,
|
||||
,
|
||||
10001202,
|
||||
,
|
||||
20001201,
|
||||
,
|
||||
0003,
|
||||
0003,
|
||||
00201202,
|
||||
01001000,
|
||||
10201102,
|
||||
02001000,
|
||||
20102101,
|
||||
01002000,
|
||||
0004,
|
||||
0003,//57
|
||||
|
||||
#GOGOEND
|
||||
02,
|
||||
12002000,
|
||||
01,
|
||||
21002000,
|
||||
01,
|
||||
12001000,
|
||||
02,
|
||||
0121,
|
||||
10021002,
|
||||
1300,
|
||||
#MEASURE 6/4
|
||||
120120120120,//68
|
||||
|
||||
#MEASURE 4/4
|
||||
#GOGOSTART
|
||||
02020202,
|
||||
02020202,
|
||||
01020202,
|
||||
01010202,
|
||||
02010102,
|
||||
01020102,
|
||||
0003,
|
||||
0004,
|
||||
03001010,
|
||||
10020010,
|
||||
02002020,
|
||||
10020020,
|
||||
01002010,
|
||||
10120020,
|
||||
200100000000100010001000,//83
|
||||
|
||||
#BPMCHANGE 180
|
||||
#SCROLL 1.061
|
||||
#GOGOEND
|
||||
3,
|
||||
#SCROLL 1
|
||||
9,
|
||||
,
|
||||
#BPMCHANGE 140
|
||||
#SCROLL 1.285
|
||||
8,
|
||||
|
||||
|
||||
#END
|
||||
|
||||
|
||||
COURSE:Normal
|
||||
LEVEL:3
|
||||
BALLOON:6,6,10,15
|
||||
|
||||
|
||||
#START
|
||||
|
||||
|
||||
#BPMCHANGE 148
|
||||
00000007,
|
||||
0008,
|
||||
1110,
|
||||
02,
|
||||
1110,
|
||||
0220,
|
||||
1110,
|
||||
02,
|
||||
1110,
|
||||
500000000000000000000000000008000000000000000000,
|
||||
1110,
|
||||
02,
|
||||
1110,
|
||||
0220,
|
||||
1110,
|
||||
02,
|
||||
1110,
|
||||
500000000000000000000008000000000000000000000000,
|
||||
1120,
|
||||
1110,
|
||||
1120,
|
||||
1110,
|
||||
1120,
|
||||
1110,
|
||||
1120,
|
||||
10333000,
|
||||
44,
|
||||
500000000000000000000000000000000008000000000000,
|
||||
44,
|
||||
0330,
|
||||
44,
|
||||
500000000000000000000000000000000008000000000000,
|
||||
44,
|
||||
#MEASURE 3/4
|
||||
033,
|
||||
,
|
||||
#MEASURE 4/4
|
||||
600000000000000000000008000000000000300000000000,//36
|
||||
|
||||
#BPMCHANGE 191
|
||||
#GOGOSTART
|
||||
,//37
|
||||
|
||||
#GOGOEND
|
||||
11000000,
|
||||
,
|
||||
11000000,
|
||||
,//41
|
||||
|
||||
#GOGOSTART
|
||||
11,
|
||||
01,
|
||||
11,
|
||||
01,
|
||||
22,
|
||||
02,
|
||||
0003,
|
||||
0003,
|
||||
1110,
|
||||
01,
|
||||
1110,
|
||||
01,
|
||||
2220,
|
||||
02,
|
||||
0003,
|
||||
0003,//57
|
||||
|
||||
#GOGOEND
|
||||
11,
|
||||
12,
|
||||
02,
|
||||
2,
|
||||
11,
|
||||
12,
|
||||
02,
|
||||
2,
|
||||
11,
|
||||
1300,
|
||||
#MEASURE 6/4
|
||||
708,//68
|
||||
|
||||
#MEASURE 4/4
|
||||
#GOGOSTART
|
||||
1110,
|
||||
01,
|
||||
1110,
|
||||
01,
|
||||
2220,
|
||||
02,
|
||||
0003,
|
||||
0003,
|
||||
0033,
|
||||
10010010,
|
||||
01003030,
|
||||
10010010,
|
||||
01003030,
|
||||
7,
|
||||
08,//83
|
||||
|
||||
#BPMCHANGE 180
|
||||
#SCROLL 1.061
|
||||
#GOGOEND
|
||||
3,
|
||||
#SCROLL 1
|
||||
9,
|
||||
,
|
||||
#BPMCHANGE 140
|
||||
#SCROLL 1.285
|
||||
8,
|
||||
|
||||
|
||||
#END
|
||||
|
||||
|
||||
COURSE:Easy
|
||||
LEVEL:2
|
||||
BALLOON:5,8,8,6,8,12
|
||||
|
||||
|
||||
#START
|
||||
|
||||
|
||||
#BPMCHANGE 148
|
||||
00000007,
|
||||
0008,
|
||||
11,
|
||||
01,
|
||||
11,
|
||||
02,
|
||||
11,
|
||||
01,
|
||||
11,
|
||||
500000000000000000000000000008000000000000000000,
|
||||
11,
|
||||
01,
|
||||
11,
|
||||
02,
|
||||
11,
|
||||
01,
|
||||
11,
|
||||
500000000000000000000008000000000000000000000000,
|
||||
1110,
|
||||
11,
|
||||
1110,
|
||||
11,
|
||||
1110,
|
||||
11,
|
||||
11,
|
||||
3330,
|
||||
44,
|
||||
500000000000000000000000000008000000000000000000,
|
||||
44,
|
||||
03,
|
||||
44,
|
||||
500000000000000000000000000008000000000000000000,
|
||||
44,
|
||||
#MEASURE 3/4
|
||||
003,
|
||||
,
|
||||
#MEASURE 4/4
|
||||
600000000000000008000000000000000000300000000000,//36
|
||||
|
||||
#BPMCHANGE 191
|
||||
#GOGOSTART
|
||||
,//37
|
||||
|
||||
#GOGOEND
|
||||
7,
|
||||
08,
|
||||
7,
|
||||
08,//41
|
||||
|
||||
#GOGOSTART
|
||||
11,
|
||||
01,
|
||||
11,
|
||||
01,
|
||||
11,
|
||||
01,
|
||||
0003,
|
||||
0003,
|
||||
11,
|
||||
01,
|
||||
11,
|
||||
01,
|
||||
11,
|
||||
01,
|
||||
0003,
|
||||
0003,//57
|
||||
|
||||
#GOGOEND
|
||||
1,
|
||||
11,
|
||||
,
|
||||
2,
|
||||
1,
|
||||
11,
|
||||
,
|
||||
2,
|
||||
11,
|
||||
1300,
|
||||
#MEASURE 6/4
|
||||
708,//68
|
||||
|
||||
#MEASURE 4/4
|
||||
#GOGOSTART
|
||||
11,
|
||||
01,
|
||||
11,
|
||||
01,
|
||||
11,
|
||||
01,
|
||||
0003,
|
||||
0003,
|
||||
0033,
|
||||
5,
|
||||
000008000000000000000000300000000000300000000000,
|
||||
6,
|
||||
000008000000000000000000300000000000300000000000,
|
||||
7,
|
||||
08,//83
|
||||
|
||||
#BPMCHANGE 180
|
||||
#SCROLL 1.061
|
||||
#GOGOEND
|
||||
3,
|
||||
#SCROLL 1
|
||||
9,
|
||||
,
|
||||
#BPMCHANGE 140
|
||||
#SCROLL 1.285
|
||||
8,
|
||||
|
||||
|
||||
#END
|
||||
|
||||
Reference in New Issue
Block a user